&title=好きな惣菜発表ドラゴン
&artist=king822kk
&first=0.11
&des=玉子豆腐(偽)
&lv_7=14++++?
&inote_1=&title=[宴]
好きな惣菜発表ドラゴン
[14++++?]
&artist=玉子豆腐
&first=0.11
&des_7=好きな譜面発表メロンポップ
&lv_7=玉
&inote_7=(160)
||
common
section
A
{4},,E2,E3,E4,B2f,
{4}1>5[4:1],,1,1,
{4}1>5[4:1],,1,1pp4[4:3],
{1},
{4}1>5[4:1],,1,1,
{4}1>5[4:1],,1,1,
{4}1>5[4:1],,1,1pp5[4:3],
{1},
||
transition
A
{4}8,1,1,,
||
unique
A
{4}3/6-3[8:1],
1-4[8:1],5-8[8:1],6-3[8:1],7-2[8:1],8-5[8:1],7-2[8:1],6-3[8:1],5-8[8:1],
4-1[8:1],8-5[8:1],
{4}1-4[8:1],5-8[8:1],6-3[8:1],7-2[8:1],8-5[8:1],7-2[8:1],6-3[8:1],5-8[8:1],
4-1[8:1],8-5[8:1],1-4[8:1],3-6[8:1],7-2[8:1],3-6[8:1],7-2[8:1],6-3[8:1],
1-4[8:1]/6,1/5-8[8:1],5/6-3[8:1],6/7-2[8:1],
7/8-5[8:1],7-2[8:1]/8,6-3[8:1]/7,5-8[8:1]/6,
4-1[8:1]/5,4/8-5[8:1],1-4[8:1]/8,1/3-6[8:1],3/7p6[4:1],6>8[4:1],8,6-3[8:1],
1-4[8:1],6h[4:1],4bv3[8:1],4-7[8:1]/5-8[8:1],
4-1[8:1]*p8[8:1],4-2[8:1],4/5qq3[8:1]*-7[8:1],5-8[8:1],
4-1[8:1],8-6[8:1],4v5[8:1],4-1[8:1]*p8[8:1],
||
common
section
B
{16}5,,5,4,3,,,,2h[8:1]/4h[8:1],,,,2h[8:1]/4h[8:1],,,,
{16}5,,5,4,3,,,,2h[8:1]/4h[8:1],,,,2h[8:1]/4h[8:1],,,,
{16}5,,5,4,3,,,,2h[8:1]/4h[8:1],,,,2h[8:1]/4h[8:1],,,,
{16}5,,5,4,3,,,,3h[8:1]/4h[8:1],,,,3h[8:1]/4h[8:1],,,,
{16}5,,5,4,3,,,,2h[8:1]/4h[8:1],,,,2h[8:1]/4h[8:1],,,,
{16}5,,5,4,3,,,,2h[8:1]/4h[8:1],,,,2h[8:1]/4h[8:1],,,,
{16}5,,5,4,3,,,,2h[8:1]/4h[8:1],,,,2h[8:1]/4h[8:1],,,,
||
transition
B
{8}3<6[8:1],,,,,,,,
||
unique
B
{16}8,1,8,1,8,2,8,2,8,3,8,3,8,4,8,4,8,7,6,5,8,1,2,3,8,7,6,5,4,3,2,1,
4,8,4,8,4,7,4,7,4,6,4,6,4,5,4,5,4,3,2,1,4,5,6,7,4,3,2,1,8,7,6,5,
8,3,8,3,7,2,7,2,6,1,6,1,5,8,5,8,5,6,7,8,4,3,2,1,5,6,7,8,1,2,3,4,
1,6,1,6,2,7,2,7,3,8,3,8,4,1,4,1,4,3,2,1,5,6,7,8,4,3,2,1,8,7,6,5,
7b,3,7,3,6,2,6,2,5,1,5,1,4,8,4,8,4,5,6,7,4,3,2,1,5,6,7,8,1,2,3,4,
2,6,2,6,3,7,3,7,4,8,4,8,1,5,1,5,5,4,3,2,5,6,7,8,4,3,2,1,8,7,6,5,
8b,3,8,3,{32}8,7,6,5,,,,,{16}1b,6,1,6,{32}1,2,3,4,,,,,
{16}5b,4,6,3,7,2,8,1,{32}7b,6,5,4,3,2,1,8,{4}3b/7b,
{8}6,5,47,3,6,5,47,3,{4}8^5[4:1],5-1[4:1],1-7[4:1],2,
{8}7x,8x,16,2,7,8,16,2,{4}1^4[4:1],4-8[4:1],8-2[4:1],7,
||
common
section
C
{8},3,3,4,2h[4:1],,4,5,
{8}3h[8:1]/5h[8:1],,2h[8:1]/4h[8:1],,1h[8:1]/3h[8:1],,8>5[4:3],8h[8:9],
{1},
{8},,,,1/2,,2/4,2/4,
{8},3,3,4,2h[4:1],,4,5,
{8}3h[8:1]/5h[8:1],,2h[8:1]/4h[8:1],,1h[8:1]/3h[8:1],,8-5-1-4-2[1:1],8h[8:9],
{1},,
{4}1-7[8:1],1-5[8:1]*-6[8:1]/3,1-3[8:1],1-4[8:1]*-5[8:1]/7,1-7[8:1],1>5[8:1]*<5[8:1]/3,1,3/7,
8-2[8:1],8-3[8:1]*-4[8:1]/6,8-6[8:1],8-4[8:1]*-5[8:1]/2,8-2[8:1],8>4[8:1]*<4[8:1]/6,8,2/6,
{16}1/5,2/6,3/7,4/8,
{8}1-3[8:1]/5,3,1-6[8:1]/5,7,1-4[8:1]/5,3,1-7[8:1]/5,7,1-3[8:1]/5,3,1-5[8:1]/5,7,1/5,,{16}5,6,7,8,
{8}1-3[8:1]/5,3,1-6[8:1]/5,7,1-4[8:1]/5,3,1-7[8:1]/5,7,1-5[8:1]/5,3,1/5,7,{2}3^8[8:1]/7^4[8:1],
{8}8-6[8:1]/4,6,8-3[8:1]/4,2,8-5[8:1]/4,6,8-2[8:1]/4,2,8-6[8:1]/4,6,8-4[8:1]/4,2,4/8,,{16}4,3,2,1,
{8}8-6[8:1]/4,6,8-3[8:1]/4,2,8-5[8:1]/4,6,8-2[8:1]/4,2,8-6[8:1]/4,6,8-4[8:1]/4,2,4/8,,{16}3/7,8,1,2,
3h[1024:1]/7h[1024:1],4h[1024:1]/8h[1024:1],1h[1024:1]/5h[1024:1],2h[1024:1]/6h[1024:1],
3h[1024:1]/7-3[8:1],4h[1024:1]/8h[1024:1],1h[1024:1]/5h[1024:1],2h[1024:1]/6h[1024:1],
{8}3h[1024:1]/7h[1024:1],,8b,,
8-3[8:1]/2,1,6/8,7,{16}8q4[8:1]/4,3/7,2/6,1/5,{8}4/8,,
1-6[8:1]/7,8,1/3,2,{16}1p5[8:1]/5,2/6,3/7,4/8,{8}1/5,,
8-3[8:1]/2,1,6/8,7,{16}8q4[8:1]/4,3/7,2/6,1/5,4/8,,,,
7,8,5,1,6,2,7,3,4q8[8:1]/8q4[8:1],3/7,2/6,1/5,4/8,,,,
2,1,4,8,3,7,2,6,1p5[8:1]/5p1[8:1],2/6,3/7,4/8,1/5,,,,
3,6,4,5,2,7,4,8,3,7,2,6,1,5,8,4,
7>6[16:7]/3,8>7[16:7]/4,1>8[16:7]/5,2>1[16:7]/6,3<2[16:7]/7,,,,
7,8,1,2,3,4,5,6,{4}3h[4:15]/7h[4:7],,,{1},,,7b,,,,,,,E
&inote_6=&title=[宴]
好きな惣菜発表ドラゴン
[14++++?]
&artist=ンバヂ
&first=0.11
&des_7=好きな譜面発表メロンポップ
&lv_7=玉
&inote_7=(160)
||
common
section
A
{4},,E2,E3,E4,B2f,
{4}1>5[4:1],,1,1,
{4}1>5[4:1],,1,1pp4[4:3],
{1},
{4}1>5[4:1],,1,1,
{4}1>5[4:1],,1,1,
{4}1>5[4:1],,1,1pp5[4:3],
{1},
||
transition
A
{4}8,1,1,,
||
unique
A
{4}3/6-3[8:1],
1-4[8:1],5-8[8:1],6-3[8:1],7-2[8:1],8-5[8:1],7-2[8:1],6-3[8:1],5-8[8:1],
4-1[8:1],8-5[8:1],
{4}1-4[8:1],5-8[8:1],6-3[8:1],7-2[8:1],8-5[8:1],7-2[8:1],6-3[8:1],5-8[8:1],
4-1[8:1],8-5[8:1],1-4[8:1],3-6[8:1],7-2[8:1],3-6[8:1],7-2[8:1],6-3[8:1],
1-4[8:1]/6,1/5-8[8:1],5/6-3[8:1],6/7-2[8:1],
7/8-5[8:1],7-2[8:1]/8,6-3[8:1]/7,5-8[8:1]/6,
4-1[8:1]/5,4/8-5[8:1],1-4[8:1]/8,1/3-6[8:1],3/7p6[4:1],6>8[4:1],8,6-3[8:1],
1-4[8:1],6h[4:1],4bv3[8:1],4-7[8:1]/5-8[8:1],
4-1[8:1]*p8[8:1],4-2[8:1],4/5qq3[8:1]*-7[8:1],5-8[8:1],
4-1[8:1],8-6[8:1],4v5[8:1],4-1[8:1]*p8[8:1],
||
common
section
B
{16}5,,5,4,3,,,,2h[8:1]/4h[8:1],,,,2h[8:1]/4h[8:1],,,,
{16}5,,5,4,3,,,,2h[8:1]/4h[8:1],,,,2h[8:1]/4h[8:1],,,,
{16}5,,5,4,3,,,,2h[8:1]/4h[8:1],,,,2h[8:1]/4h[8:1],,,,
{16}5,,5,4,3,,,,3h[8:1]/4h[8:1],,,,3h[8:1]/4h[8:1],,,,
{16}5,,5,4,3,,,,2h[8:1]/4h[8:1],,,,2h[8:1]/4h[8:1],,,,
{16}5,,5,4,3,,,,2h[8:1]/4h[8:1],,,,2h[8:1]/4h[8:1],,,,
{16}5,,5,4,3,,,,2h[8:1]/4h[8:1],,,,2h[8:1]/4h[8:1],,,,
||
transition
B
{8}3<6[8:1],,,,,,,,
||
unique
B
{16}8,1,8,1,8,2,8,2,8,3,8,3,8,4,8,4,8,7,6,5,8,1,2,3,8,7,6,5,4,3,2,1,
4,8,4,8,4,7,4,7,4,6,4,6,4,5,4,5,4,3,2,1,4,5,6,7,4,3,2,1,8,7,6,5,
8,3,8,3,7,2,7,2,6,1,6,1,5,8,5,8,5,6,7,8,4,3,2,1,5,6,7,8,1,2,3,4,
1,6,1,6,2,7,2,7,3,8,3,8,4,1,4,1,4,3,2,1,5,6,7,8,4,3,2,1,8,7,6,5,
7b,3,7,3,6,2,6,2,5,1,5,1,4,8,4,8,4,5,6,7,4,3,2,1,5,6,7,8,1,2,3,4,
2,6,2,6,3,7,3,7,4,8,4,8,1,5,1,5,5,4,3,2,5,6,7,8,4,3,2,1,8,7,6,5,
8b,3,8,3,{32}8,7,6,5,,,,,{16}1b,6,1,6,{32}1,2,3,4,,,,,
{16}5b,4,6,3,7,2,8,1,{32}7b,6,5,4,3,2,1,8,{4}3b/7b,
{8}6,5,47,3,6,5,47,3,{4}8^5[4:1],5-1[4:1],1-7[4:1],2,
{8}7x,8x,16,2,7,8,16,2,{4}1^4[4:1],4-8[4:1],8-2[4:1],7,
||
common
section
C
{8},3,3,4,2h[4:1],,4,5,
{8}3h[8:1]/5h[8:1],,2h[8:1]/4h[8:1],,1h[8:1]/3h[8:1],,8>5[4:3],8h[8:9],
{1},
{8},,,,1/2,,2/4,2/4,
{8},3,3,4,2h[4:1],,4,5,
{8}3h[8:1]/5h[8:1],,2h[8:1]/4h[8:1],,1h[8:1]/3h[8:1],,8-5-1-4-2[1:1],8h[8:9],
{1},,
{4}1-7[8:1],1-5[8:1]*-6[8:1]/3,1-3[8:1],1-4[8:1]*-5[8:1]/7,1-7[8:1],1>5[8:1]*<5[8:1]/3,1,3/7,
8-2[8:1],8-3[8:1]*-4[8:1]/6,8-6[8:1],8-4[8:1]*-5[8:1]/2,8-2[8:1],8>4[8:1]*<4[8:1]/6,8,2/6,
{16}1/5,2/6,3/7,4/8,
{8}1-3[8:1]/5,3,1-6[8:1]/5,7,1-4[8:1]/5,3,1-7[8:1]/5,7,1-3[8:1]/5,3,1-5[8:1]/5,7,1/5,,{16}5,6,7,8,
{8}1-3[8:1]/5,3,1-6[8:1]/5,7,1-4[8:1]/5,3,1-7[8:1]/5,7,1-5[8:1]/5,3,1/5,7,{2}3^8[8:1]/7^4[8:1],
{8}8-6[8:1]/4,6,8-3[8:1]/4,2,8-5[8:1]/4,6,8-2[8:1]/4,2,8-6[8:1]/4,6,8-4[8:1]/4,2,4/8,,{16}4,3,2,1,
{8}8-6[8:1]/4,6,8-3[8:1]/4,2,8-5[8:1]/4,6,8-2[8:1]/4,2,8-6[8:1]/4,6,8-4[8:1]/4,2,4/8,,{16}3/7,8,1,2,
3h[1024:1]/7h[1024:1],4h[1024:1]/8h[1024:1],1h[1024:1]/5h[1024:1],2h[1024:1]/6h[1024:1],
3h[1024:1]/7-3[8:1],4h[1024:1]/8h[1024:1],1h[1024:1]/5h[1024:1],2h[1024:1]/6h[1024:1],
{8}3h[1024:1]/7h[1024:1],,8b,,
8-3[8:1]/2,1,6/8,7,{16}8q4[8:1]/4,3/7,2/6,1/5,{8}4/8,,
1-6[8:1]/7,8,1/3,2,{16}1p5[8:1]/5,2/6,3/7,4/8,{8}1/5,,
8-3[8:1]/2,1,6/8,7,{16}8q4[8:1]/4,3/7,2/6,1/5,4/8,,,,
7,8,5,1,6,2,7,3,4q8[8:1]/8q4[8:1],3/7,2/6,1/5,4/8,,,,
2,1,4,8,3,7,2,6,1p5[8:1]/5p1[8:1],2/6,3/7,4/8,1/5,,,,
3,6,4,5,2,7,4,8,3,7,2,6,1,5,8,4,
7>6[16:7]/3,8>7[16:7]/4,1>8[16:7]/5,2>1[16:7]/6,3<2[16:7]/7,,,,
7,8,1,2,3,4,5,6,{4}3h[4:15]/7h[4:7],,,{1},,,7b,,,,,,,E
