&title=Between Boundaries
&artist=DJ Counterforce
&first=0.02
&des=JiC
&lv_6=14+
&inote_6=(148){1},
{1},
{1}6,
{1}5,
{1}4,
{8}3,,,,,,6,6,
{4}6-3[4:6],2,4,2,
{4}4,2,4,2,
{4}2-7[4:6],6,8,6,
{4}8,6,5s1[4:1],,
{8}2,3,5,,2,3,5,,
{8}3,4,6,,3,4,6,,
{8}6,6,5,4,3,3,E6,E3,
{8}7,7,8,1,2,2,E8,E3,
{8}6,5,3,,6,5,3,,
{8}7,6,4,,7,6,4,,
{8}7,7,8,1,2,2,B6/B5,B3/B4,
{16}8,,8,,7-4[8:1],8,7,8,7s3[8:1],,,,8,,,,
{8}8b/1b,2,E5,3,5,5,6/B3/E3,,
{8}6/5,4,E7,1,8,8,B2/E3/7,,
{16}6h[8:1]/1,,1,,6h[8:1],,E1,,6h[8:1],,C,,6h[8:1],,E5,,
{8}6/3,5,2,2,1/B6/E7,1,8/B4/E5,,
{8}7/5,7,E4,6,3,3,E7/B6/2,,
{8}1/7,7,E2,8,4,4,B7/E7/3,,
{8}3h[8:1]/8,8,3h[8:1],E1,3h[8:1],C,3h[8:1],E5,
{8}6/2,3,7,4,6/E3/B3,6,1/7,1/7,
{8}E6/B5/2,3,4/E7,4,8/3,7,6/E3,6,
{8}5/B1/E2,5,2/E6,3,4/7,7,8/E4,8,
{8}7h[8:1]/3,3,7h[8:1],E2,7h[8:1],C,7h[8:1],E6,
{8}B8/E8/4,3,2/E6,2,E1/B1/5,6,7/E3,7,
{16}6/4,,3/5,,E6/B5,,E3/B3,,7,8,7,8,7,,,,
{16}2/4,,3/5,,E4/B4,,E7/B6,,2,1,2,1,2,,,,
{8}8/E4/B4,8,7/B3/E3,7,1/E6/B5/B6,1,8z4[4:3]*qq3[4:3],8,
{1},
{32}1b/8b,2-7[32:3]/7,3/6,4/5,,,,,
{16}2/6-3[8:1],,3,,6/1-5[8:1],,8,,1,,7,,
{16}8/4,,1/5,8/4,3/7,2/6,1/5,,3-1[8:1]/4,,2/6,,4/3h[1:0],,
{24}7,6,5,
{16}4/3-8[8:1],,1/7,,3/6-1[8:1],,4,,2-5[8:1]/6,,5,,2/6,,1,,
{16}8-3[8:1],,7/3,,4-8[8:1],,5,,4/6-1[8:1],,5,,2/6,,4,,
{16}8h[32:1]/4h[32:1],7,6h[32:1]/1h[32:1],2,3h[32:1]/7h[32:1],6,2h[32:1]/5h[32:1],3,8h[32:1]/4h[32:1],7,6h[32:1]/1h[32:1],2,3h[32:1]/7h[32:1],6,5h[32:1]/2h[32:1],3,
{16}4h[32:1]/8h[32:1],7,6h[32:1]/2h[32:1],3,4h[32:1]/7h[32:1],6,5h[32:1]/1h[32:1],2,3h[32:1]/8h[32:1],7,6h[32:1]/2h[32:1],3,4h[32:1]/7h[32:1],6,5/1,,
{48}2b/4b,3,,,,,7b/5b,6,,,,,
{32}1,2,3,4,8,7,6,5,
{48}3,4,,6,5,,3,4,,6,5,,3,4,,6,5,,3,4,,6,5,,3,4,,6,5,,3,4,,6z2[48:21],5,,
{8}3s7[8:3],,,,,,
{32}8/1,7-2[32:3]/2,6/3,5/4,,,,,
{16}7/3-6[8:1],,6-3[8:1],,3/8-4[8:1],,1,,8,,2,,
{16}1/5,2/6,3/7,4/8,1/5-2[8:1],,3/8,,7-4[8:1]/5,,1,,7h[1:0]/3-8[8:1],,8-3[8:1],,
{16}7/3,,5,,7-4[8:1],,4-7[8:1]/2,,7/1,,3,,1-5[8:1],,3/6-1[8:1],,
{16}1,,6,,4,,
{24}5,4,3,
{16}2/1w5[8:1],,3/7,,1,,,,
{16}6/5,,8/4,,8/4,7/3,2/6,1/5,8/4,,7/4,,6/4,,5/4,,
{8}4/3,4/2,4/1,4/8,8-3[8:1]/4-7[8:1],,8b/4b,,
{16}2,1-5[8:15],2,7,6,7,3,2,3,6,5,6,3,4,3,5,
{16}4,6,4,4,3,6,2,7,
{24}1-5[8:1],8,1,8,1,8,1b,,,,,,
{16}3,4,2,1,5,6,1,8,
{32}3,4,3,,6,5,6,,
{16}4,5,3h[8:1],,
{16}7,8,6,1,4,3,5,2,1,3,6,5,
{32}7,8,7,,1h[8:1],,,,
{16}4,3,7,8,6,1,5,4,
{32}6,5,6,,3,4,3,,
{16}8,1,6,5,
{16}7,1,4,2,6,5,8,3,
{32}1,2,1,,3h[8:1],,,,
{16}7-4[8:1],4,8,2,
{16}7,,1,,2-6[8:1],4,1,7,2,
{16},8,,8-4[8:1],5,6,4,
{16}8,,2,,1,8,3,6,2,7,4,5,2,1,2,1,
{32}2,3,4,,8,7,6,,
{16}3,3,8,1,7,4,5,3,6,1,8,2,
{32}7,6,5,4,3,2,1,8,
{16}5,7,5,6,
{24}5h[1:0],5h[1:0],5h[1:0],5h[1:0],5h[1:0],5h[1:0],5-1[8:1]*v8[8:1],,,,,,
{16}5b,,,,2/7,3,5,4,
{32}6,5,6,,3,4,3,,
{16}8,1,7,5,
{16}8,1,4,3,5,2,7,8,5,4,6,3,
{32}6,5,6,,3,4,3,,
{16}5,2,6,8,7,1,5,4,6,3,8,1,
{32}6,5,6,,3,4,3,,
{16}5,5,1,8,2,6,5,7,8,5,2,6,
{32}3,4,3,,6,5,6,,
{16}7/8,,1/5,,2,3,2,3,
{32}2,3,4,5,2,3,4,5,7,,6,,7,,6,,
{32}7,6,5,4,7,6,5,4,
{16}1,3,1,3,
{32}1,2,3,4,2,3,4,5,
{16}8,6,8,6,
{16}2,4,1,8,5,7,2,1,5,6,3,4,8,7,3,4,
{32}1/6,8,7,6,5/4,4,3,2,1/6,8,7,6,5/4,4,3,2,1/6,7,8,1,2,3,4,5,1/6,8-4[8:1],7,6,5/1,4,3,2,
{32}1z5[4:6]/7s3[4:6],Cf,,,,,,,,,,,,,,,,,,,,,,,,,,,,,,,
{1},
{8}3h[8:7]/4,,,2,2,2,,5,
{8}6h[8:7]/5,,,7,7,7,,3,
{8}2h[8:7]/3,,,E2,,C,,,
{8}8h[8:7]/7,,,E8,,C,,,
{1}1/8-4[4:6],
{1},
E
