&title=ドッペルゲンガー
&artist=はるまきごはん
&first=0.03
&des=yksetuna
&lv_5=13+
&inote_5=(217){4},Ch[4:15],,,{1},,,
{4}E1,E7,E3,E5,
{4}2,3/4,3/4,3/4,
{8}2,4,3,5,4-2-5-1[4:3],6,7,,7xh[4:3],,,,,,,,
{8}7,5,6,4,5-7-4-8[4:3],3,2,,2xh[4:3],,,,,,,,
{8}8,2,7,1,6-4-7-3[4:3],8,1,,1xh[4:3],,,,,,,,
{8}1,7,2,8,3q5[4:3],1,8,,,,,,,,,,
{8}4-6[8:1],,3x,,4-2[8:1],4,5,,
{8}4-7[8:1],,3,,4-1[8:1],4,5,,
{8}4^6[8:1],,3,,4^2[8:1],4,5,,
{8}E6,E4,E8,E2,E7,E3,E1,E5,
{8}7x-5[8:1],,8,,1-5[8:1],1,8,,
{8}7x-5[8:1],,8,,1v4[8:1],1,8,,
{8}6x-8[8:1],,5,,4,1,3q5[4:2],8,
{4},,,C,
{8}7-5[8:1],,7x/8,,3,4-2[8:1]*p8[8:1],,,
{8},7,7,8,1-5[8:1]/6,,8V62[4:1],,
{8}3,,4,,1,8-6[8:1]*p4[8:1],,,
{8},2,5,3,4h[8:1]/6h[8:1],,4h[8:1]/6h[8:1],,
{8}2-4[8:1],,2x/1,,6,5-7[8:1]*q1[8:1],,5x,
{8},2,2,1,8-4[8:1]/3,,1,,
{8}2xh[16:1]/5xh[16:1],2xh[16:1]/5xh[16:1],2xh[16:1]/5xh[16:1],3xh[16:1]/6xh[16:1],3xh[16:1]/6xh[16:1],3xh[16:1]/6xh[16:1],4xh[16:1]/7xh[16:1],4xh[16:1]/7xh[16:1],4xh[16:1]/7xh[16:1],8xh[16:1],5xh[16:1],7xh[16:1],4x-2qq5[2:4],,,,
{1}6bx,,7pp4[2:3],,3pp8[2:3],,6qq1[2:3],,
{8}2/4-7-5-1[2:3],,3,3,4h[4:1],,,,3h[4:1],,,,2h[4:1],,,,
{8}7/5-2-4-8[2:3],,6,6,5h[4:1],,,,6h[4:1],,,,7h[4:1],,,,
{4}2h[4:1],4h[4:1],3,4/5,
{4}7h[4:1],5h[4:1],6,5/4,
{4}Cf/2bh[4:4],,,,4,3-6[8:1]/4,3/4,,
{8}2-4[8:1],,1/2,,8,8-6[8:1]*p4[8:1],,8,,2,3/1V75[4:1],,4,3,2,,
{8}1-3[8:1],,1/4,,5,6-8[8:1]*q2[8:1],,6,,3,2/4pp5[4:1],,1,2,3h[4:1],,
{8}4-8[8:1],,2,3,4-8b[8:1],,6,5,
{8}4-8[8:1],,2,3,4-8b[8:1],,6,5,
{8}4h[4:3],,1-3[8:1],,1-5[8:1],,1,,
{8}1h[4:1],,{32}8,7,6,5,4,3,2,1,8v3[8:1]*v5[8:1],,,,,,,,Cf,,,,,,,,
{8}6-8[8:1],,5/6,,4,4-2[8:1]*p8[8:1],,4,,6,7/5V31[4:1],,8,7,6,,
{8}5-7[8:1],,5/8,,1,2-4[8:1]*q6[8:1],,2,,7,6/8pp1[4:1],,5,6,7h[4:1],,
{8}8v5[8:1]*v3[8:1],,8b,,2/6,1-6[8:1]/7-3[8:1],,1/7,,2,5,3,{16}6,4,6,4,8,,,,
{8}1v4[8:1]*v6[8:1],,1b,,7/3,8-3[8:1]/2-6[8:1],,8/2,,7,4,6,{16}3,5,3,5,1,,,,
{8}8v5[8:1]*v3[8:1],,8b,,2/6,1-6[8:1]/7-3[8:1],,1/7,,2,5,3,{16}6,4,6,4,8,,3,,
{4}2qq2[4:6]/7pp7[4:6],,,,,,,,
{8}7,5,6,4,5-7-4-8[4:3],3,2,,2xh[4:3],,,,,,,,
{8}2,4,3,5,4-2-5-1[4:3],6,7,,7xh[4:3],,,,,,,,
{8}1,7,2,8,3-5-2-6[4:3],1,8,,8xh[4:3],,,,,,,,
{8}8,2,7,1,6p4[4:3],8,1,,,,,,,,,,
{8}5-3[8:1],,6x,,5-7[8:1],5,4,,
{8}5-2[8:1],,6,,5-8[8:1],5,4,,
{8}5^3[8:1],,6,,5^7[8:1],5,4,,
{8}E4,E6,E2,E8,E3,E7,E1,E5,
{8}2x-4[8:1],,1,,8-4[8:1],8,1,,
{8}2x-4[8:1],,1,,8v5[8:1],8,1,,
{8}3x-1[8:1],,4,,5,8,6p4[4:2],1,
{4},,,C,
{8}2-4[8:1],,2x/1,,6,5-7[8:1]*q1[8:1],,,
{8},2,2,1,8-4[8:1]/3,,1V37[4:1],,
{8}6,,5,,8,1-3[8:1]*q5[8:1],,,
{8},7,4,6,5h[8:1]/3h[8:1],,5h[8:1]/3h[8:1],,
{8}7-5[8:1],,7x/8,,3,4-2[8:1]*p8[8:1],,4x,
{8},7,7,8,1-5[8:1]/6,,8,,
{16}7b,4x,7x,4x,7x,,3bx,6x,3x,6x,3x,,5bx,2x,5x,2x,
{16}5x,,3bx,4x,3x,4x,3x,,5x-7pp4[2:4],,,,,,,,
{1}3bx,,2qq5[2:3],,6qq1[2:3],,3pp8[2:3],,
{8}7/5-2-4-8[2:3],,6,6,5h[4:1],,,,6h[4:1],,,,7h[4:1],,,,
{8}2/4-7-5-1[2:3],,3,3,4h[4:1],,,,3h[4:1],,,,2h[4:1],,,,
{4}7h[4:1],5h[4:1],6,5/4,
{4}2h[4:1],4h[4:1],3,4/5,
{4}Cf/7bh[4:4],,,,5,6-3[8:1]/5,6/5,,
{8}7-5[8:1],,8/7,,1,1-3[8:1]*q5[8:1],,1,,7,6/8V24[4:1],,5,6,7,,
{8}8-6[8:1],,8/5,,4,3-1[8:1]*p7[8:1],,3,,6,7/5qq4[4:1],,8,7,6h[4:1],,
{8}5-1[8:1],,7,6,5-1b[8:1],,3,4,
{8}5-1[8:1],,7,6,5-1b[8:1],,3,4,
{8}5h[4:3],,8-6[8:1],,8-4[8:1],,8,,
{8}8h[4:1],,{32}1,2,3,4,5,6,7,8,1v4[8:1]*v6[8:1],,,,,,,,Cf,,,,,,,,
{8}3-1[8:1],,4/3,,5,5-7[8:1]*q1[8:1],,5,,3,2/4V68[4:1],,1,2,3,,
{8}4-2[8:1],,4/1,,8,7-5[8:1]*p3[8:1],,7,,2,3/1qq8[4:1],,4,3,2h[4:1],,
{1}1-5[2:1],{16}2,4,2,4,1,5,1,5,8b/6bx,,,8b/6b,,,8b/6b,,
{8}1,7,4,6,3-5b[8:1],1,3b/7bqq8[4:4],,
{8}3,3,3,3,2,2,2,2,,3,5,4,6b-4b[8:1],,6b/2bpp1[4:4],,
{8}6,6,6,6,7,7,7,7,,6,4,5,3bs7[4:7],,,,
{1},,
{8}7-3[8:1]/8-5[8:1],,7x/8x,,6x,7-3[8:1]/8-5[8:1],,7x/8x,,2,4,3,5V31[4:1],,1V75[4:1],,
{4}5>1[4:1],1<5[4:1],5V31[4:1],1V75[4:1],5p4[4:2],,,,
{1}2h[1:2],,4h[1:2],,6h[1:2],,8h[1:2],,
{8}2-6-4-1[4:6],,8,8,7h[4:1],,,,8h[4:1],,,,7h[4:1],,,,
{8}7-3-5-8[4:6],,1,1,2h[4:1],,,,1h[4:1],,,,2h[4:1],,,,
{1}2/4-1[2:1],5-8[2:1]/7,
{4}6h[4:4]/Cf,,,,{32}A3,E3,E2,A1,,,,,A5,E6,E7,A7,,,,,B4,C,B8,A8,,,,,,,,,,,,,
{8}2-6[8:1],,25,,7,7-3[8:1]/8-5[8:1],,7/8,,2,7/1v3^5[4:1],,5-8[8:1],6,7b,,
{8}6x-3[8:1],,2/6,,1,2-4[8:1]/8q4b[8:1],,2/8,,6,5V74[4:1]/3,,3,2,1b,,
{8}6-3[8:1],,2,2,6-3b[8:1],,1,1,6-3[8:1],,8,8,6-3b[8:1],,8,1,
{16}2,,3,,5,4,5,,3,,3,,4,,2/5^8[8:1],,{16},,1,,2,,3,,5,4,5,4,6,3,6,3,
{8}7-3[8:1],,74,,2,2-6[8:1]/1-4[8:1],,2/1,,7,2/8v6^4[4:1],,4-1[8:1],3,2b,,
{8}3x-6[8:1],,7/3,,8,7-5[8:1]/1p5b[8:1],,7/1,,3,4V25[4:1]/6,,6,7,8b,,
{8}8v5[8:1]*v3[8:1],,8b,,2/6,1-6[8:1]/7-3[8:1],,1/7,,7,4,6,{16}3,6,3,6,2,5,2,5,
{8}1bv4[8:1]*v6[8:1],,1b,,7/3,8-3[8:1]/2-6[8:1],,8/2,,2,5,3,{16}6,3,6,3,7,4,7,4,
{8}8bv5[8:1]*v3[8:1],,8b,,2/6,1-6[8:1]/7-3[8:1],,1/7,,7,4,6,{16}3,6,3,6,2,5x,2x,5xp5[16:25],
{1}1xp1[16:24],,
{2}A7,B7,C,B3,A3,E6,C,E2,3h[4:23],,6,,8b-5[4:14],,,,,,,,
{8}7,7h[4:1],,5,5h[4:1],,C,,2,2h[4:1],,4,4h[4:1],,C,,
{8}6,6h[4:1],,8,8h[4:1],,C,,3,3h[4:1],,1,1h[4:1],,C,,
{8}6,6h[4:1],,5,5h[4:1],,C,,3,3h[4:1],,4,4h[4:1],,C,,
{8}7,7h[4:1],,8,8h[4:1],,C,,3q5[4:3],
