&title=Son of Sun
&artist=Hosoe Shinji
&first=-0.6
&des=Rainmaker
&des_5=Rainmaker
&lv_5=14
&inote_5=(200){4},,,,{1}1>1b[2:7],
,,,{8}8/2,
3/7,6/2,3,5,4,{4}3/6>3-7>2[4:3],
,,,,{1}4<4[2:1],
6>3-7>2b[2:1],
{8}4,3,8,7,6/2,7/3,{4}3,
{8}6,6,5,5,6,5,{4}7/4,
{8}3,3,4,4,3,4,{4}5/2,
{16}1xh[32:1],2xh[32:1],3xh[32:1],4xh[32:1],8xh[32:1],7xh[32:1],6xh[32:1],5xh[32:1],{32}1b,2,3,4,5,6,7,8,{4}1/5b,
{8}8/4,7,4/7,4,6/4,4,{4}5/4,
{8}5/2,3,7/4,6,5/1,2,3/7,{16}8,1,
{8}7,2,5/2,5,3/5,5,{4}4/5,
{8}4/7,6,2/5,3,4/8,7,2/6,{16}1,7,
{8}2,8,7/3,3,6/2,6,{4}5/3,
{8}7/5,6,7/5,7,3,5,4/2,5/1,
6,1,2/6,6,3/7,3,{4}4/6,
{16}1xh[32:1],2xh[32:1],3xh[32:1],4xh[32:1],8xh[32:1],7xh[32:1],6xh[32:1],5xh[32:1],{32}1b,2,3,4,5,6,7,8,{4}5b/1h[4:1],
{8}7-5[8:1],7,8,1,2-8[8:1],2,7,6,
5<8[8:1],1,2,3,4>1[8:1],8,7,6,
5/3x-8[8:1],3,7,6,5-8[8:1],5,1,2,
3/7-4[8:1],6,2-5[8:1],1,8b,7b,8b,7b,
6/1-5[8:1],1,6,7,8-4[8:1],8,2,3,
5/1>4[8:1],6,7,8,7<4[8:1],8,1,2,
3,3,4/2,4/2,6,6,7/5,7/5,
{48}E2,B2,B3,E4,,,,,,,,,E8,B7,B6,E6,,,,,,,,,E2,B2,B3,E4,,,,,,,,,{4}Cf,
{8}8bx/2bx,3,8/2,7,{4}2h[8:1]/6h[8:1],7h[8:1]/3h[8:1],
{8}1/8,2,1/7,6,{4}7h[8:1]/3h[8:1],2h[8:1]/6h[8:1],
{8}1/7,6,1/7,2,{4}7h[8:1]/3h[8:1],2h[8:1]/6h[8:1],
{8}8/1,7,2/8-4[8:1],3,8b,2,{4}1bw5[8:1],
1,{8}7/3,7,{4}6/2h[8:1],3/7h[8:1],
{8}6/2,2,7/3,7,{4}6/2h[8:1],3/7h[8:1],
{8}6/2,2,7/3,7,{4}6/2h[8:1],3/7h[8:1],
{8}2-5[8:1],2,1-5[8:1],1,4x,3,{4}2b/6,
{24}1b/8b<5pp8qq5b[4:9],2x,3x,4x,{4},,,{16},{48},{1}1-4[8:1],
4-1[8:1],
{24}2b/6h[8:3],3,4,5,,,2,1,8,7,,,7/1h[4:1],6,5,4,,,8,7/2,6/3,5/4,,,{4}7b/2bpp1[2:1],
{8}6,6h[4:1],,,{4}5x,
1b/7bqq1[2:1],{8}2,3h[4:1],,,{4}4x,
8b/2bpp8[2:1],{8}7,6h[4:1],,,5x,5,
6/1,2,8/3,7,8/4,7,6,{16}1,8,
{4}2b/7b,6b/3b,{8}8b/1b,6/5,4/3,1/8,
3/4,6/5,7/8,6/5,2/1,7/4,{4}7/4,
5/1,8/3,{8}7/8,6/5,4/3,2/1,
3/4,5/6,7/8,6/5,7/8,2/1,{4}4/7,
4/3,{8}8/1,7,5/6,4/3,2/1,8/7,
2/1,4/3,2/1,8/3,6/5,7/8,{4}5/2,
{2}4b-7[8:1]/3b-8[8:1],Ch[4:1],
Ch[4:1],{8}8/1,1/8,{4}7/2,
{1}6b/3b<3b[4:5],
{8},,,,,,5,4,
{4}3/6>6b[4:5],2b,,,,,,,7/2h[4:3],
6,5,{8}4,4h[4:1],
,2,{4}2h[4:1],{8}8,8h[4:1],1,1,
{4}7-4[8:1]/2-5[8:1],7/2,{16},,,,,,,,2b,
4,3,4,2,5,3,5,2,6,3,6,2,7,3,7,
{8}4-8[8:1],4/7,{4}4/7,{8}6-1[8:1]/2-5[8:1],6/2,{4}6/2,
{8}8/4,8/4,7/3,7/3,6/2,2/6,5/1,5/1,
2-5[8:1]/6-1[8:1],6/2,{4}6/2,{8}4-1[8:1]/8-5[8:1],4/8,{4}4/8,
{8}2/6,2/6,3/7,7/3,8/4,8/4,7/3,3/7,
2x-7[8:1]/6x-3[8:1],6/2,{4}2/6,{8}4x-7[8:1]/8x-3[8:1],8/4,{4}8/4,
{8}4/8,8/4,7/3,7/3,6/2,6/2,5/1,5/1,
6/2-5[8:1],2,8-4[8:1],8,3,3,7,7,
{32}2,3,4,5,6,7,8,1,2,3,4,5,6,7,8,1,2,3,4,5,6,7,8,1,2,3,4,5,6,7,8,1,
{8}7/2,6/3,8/1,7/2,3,5,{4}6/2>8[4:1],
8x,B8/B1/Cf,{2}5xs1[8:1]/4xz8[8:1],
{8}2/7,6/3,8/1,7/2,3,5,{4}6/2h[4:1],
{32}8b,7,6,5,4,3,2,1,8,7,6,5,4,3,2,1,8,7,6,5,4,3,2,1,{4}8/4,
{8}6/5,7,8/1,2,{4}3/4,8-4[8:1]/5-1[8:1],
,6x/2x,8/3,{8}6/5,7,
{16}3,5,4,5,3,6,3,6,2,7,2,7,1-5[8:1],8,1,8,
{4}1b,{8}7,7b-4[8:1],,1,{4}2bw6[8:1],
{64}2x,Cf,,,,,,,,,,,,,,,{8}8x,7x/5x,,4,5,3,
6/2,5,3,3h[4:1],4,5,{4}6/2,
{8}8b/3b,4,6/1,5,3/8,4,6/1,5,
8b/3-6[8:1],2,1-4[8:1],8,1-5[8:1],7,{4}1/6-3[8:1],
{8}6/1b,2,8,7,1/5,2,8/4,7,
1/6-3[8:1],7,8-5[8:1],1,8-4[8:1],2,{4}3,
{8}2b/1-5[8:1],3/8,2,3,7b/8x-3[8:1],6/1,7,7,
{32}2bx,3x/1x,4x/8x,7x/5x,{8}6x-2[8:1],,4,4,5,{4}5<5b[2:3],
E
