&title=Four Leaves For You
&artist=Rin/PCゲーム「白詰指輪 ~四つ娘の花嫁 俺、全員選びました~」OPテーマ
&first=0.66
&des=Ragna@四等分の花嫁
&wholebpm=151
&demo_seek=42.8
&demo_len=25.6
&des_5=Ragna@四等分の花嫁
&lv_5=12+
&inote_5=(151)
{8},18,,,{16}4v1[8:1]*v7[8:1],5,4,,,,,,
28,,,34,{8},57,1^4[8:1]/8^5[8:1],,18,,
5-1[8:1]/4-8[8:1],,4b/5b,,18,2,3,4h[8:5],
,5,6,7,8-3[8:1]*-5[8:1],,8,,
4^1[8:1]/5^8[8:1],,45,,18,7,6,5h[2:1],
,4,3,2-6[8:1],,1,8,71,
,{16}3,4,{8}3,25,16,78,,{16}6,5,
{8}6,74,83,1>8[8:3]/2,,,,,
2h[4:1],,3h[4:1],,4h[16:3],{16},5,{8},18,
,2qq5[8:3]/7pp4[8:3],{4}2b/7b,,,
45,46,47,48,
4/1<5[8:4],4,4,4,
36,{8}24,4/2h[4:1],,1h[4:1],,8p5[2:1]*pp4[2:1],
{4},,,,
45,53,52,51,
8>4[8:4]/5,5,5,5,
36,{8}75,7h[4:1]/5,,8h[4:1],,1V73[8:3]*-5[8:3],
{4},,,{8}8,1,
2h[4:1]/7,,4,3/5-8[8:1],,,1,,
7h[4:1]/2,,5,6/4-1[8:1],,,8,,
2h[4:1]/7,,4,3/5-8[8:1],,,1,,
7h[8:3]/2,,,5p1[8:1],,,8,,
27,8>6[16:5],1,2h[8:3]/8,,,,,
16,8<2[16:5],7,6h[8:3]/8,,,,,
17,2,3,4h[4:1],,5h[4:1],,6q2[8:1],
,8,,,{16}5v8[8:1]*v2[8:1],4,5,,,,,,
17,,,56,{8},24,1^4[8:1]/8^5[8:1],,18,,
1-5[8:1],,1b/5b,,6,7,8,2pp5[16:5],
,25,6,7,8-3[8:1]*-5[8:1],,8,,
2-6[8:1],,2b/6b,,7,8,1,2h[8:3]/7,
,4,5,6h[4:1]/4,,8,17,28,
,{16}3,4,{8}3,25,16,78,,{16}6,5,
{8}6,74,83,12,,3-8[8:1],4,5,
,6-1[8:1],5,4,,34,25,16,
78,{16},12,{8},34,4^1[8:1]/5^8[8:1],,45,,
3-7[8:1],,3b/7b,,18,2,3,4qq8[16:5],
,48,7,6,5-8[8:1]*-2[8:1],,5,,
4-8[8:1],,4b/8b,,17,2,3,4>7[16:3],
,7,6,5<2[16:3],,3,4,5,
,{16}3,4,{8}3,25,18,27,,{16}6,5,
{8}6,74,18,27,,3>3[8:3],4,5,
,,,,2b/7b,{16},8bqq5[16:5]/1bpp4[16:5],{8},,
,,,,4^1[8:1]/5^8[8:1],,45,,
2-5[8:1],,12,,7-4[8:1],8,8,,
3^8[8:1],,34,,6^1[8:1],5,5,,
2-6[8:1],,82,,7-3[8:1],1,1,,
4p8[8:1],,46,,7p3[8:1],1,1,,
2v5[8:1],,21,,7v4[8:1],8,8,,
3V15[4:1],,35,,6V84[4:1],4,4,,
2qq5[8:3],,,,5,6,7,8h[8:3],
,1pp5[8:3]*qq5[8:3],1b,,,,,,
4v2[8:1]/5,,,6v8[8:1],6,,,17,
,23,,4-1[8:1]/5-8[8:1],45,,,,
8v6[8:1]/1,,,2v4[8:1],2,,,53,
,67,,1pp2[8:1]/8qq7[8:1],1b/8b,,,,
E
