&title=D.A.N.C.E.!
&artist=DJ Yoshitaka feat. 星野奏子
&first=0.01
&des=西海岸の野良猫
&lv_5=11+
&inote_5=(116)
{1},
{1}3h[1:1],
{1}6h[1:1],
{1}5h[1:1],
{8}4h[1:1],,,,,,2,3,
{8}5h[1:1],,,,,,3,4,
{8}6h[1:1],,,,,,8,7,
{8}5h[8:7],,,,,,3-7[8:1],4h[16:1],
{8}3-8[8:1],5h[16:1],3,6h[16:1],1-5[8:1],2,1/3h[16:1],3h[16:1],
{4}3-6[8:1],2-5[8:1],4-8[8:1],1-5[8:1],
{4}8-4[8:1],6-1[8:1],7-4[8:1],6,
{8}3h[4:1],1,4h[4:1],1,3<6[8:1],,,,
{8}7<4[2:1]/3>8[2:1],,,,,,,6h[16:1],
{4}6-3[8:1],7-4[8:1],5-1[8:1],8-4[8:1],
{4}1-5[8:1],3-8[8:1],2-5[8:1],3,
{8}6h[4:1],8,5h[4:1],4-8[8:1],8-4[8:1],,,,
{8}6-2[8:1],5h[16:1],6,4h[16:1],1>4[8:1],7,8/1b,,
{16}25,,3,4,3,,2,,6,5,,4,,3,4,,
{16}2h[4:1],,1,,8,,7,8,7-4[8:1],8,,1,,1,,,
{16}7,,6,5,7,,,6-1[8:1],5,4,,3,,,3,,
{16}7h[4:1],,6,,5,,3-8[8:1],4,,5,,,5,,,,
{16}6,,7,8,7,,6,,2,1,,3,,3,4,3,
{16}5h[4:1],,4,,3h[8:1],,4,4,2-5[8:1],1,,8,,8,,,
{16}7h[16:3],,,5h[16:3],,,4h[16:3],,,2h[16:3],,,8,,3,4,
{16}2,,5,6,5,4,5<8[8:1],,,,,,,,2,1,
{16}3-7[8:1],,4,,5,,6,8,5,1h[8:1],,3,2>5[8:1]/4,,17,,
{16}28,,,7,7,5,6,4,5-8[8:1],3,4,2,5,,,,
{16}2,5,3,4,1,6,4,5,2,7,5,6,1-6[8:1],8,5,,
{16}1-4[8:1]/6-3[8:1],,,,,,,,5-1[8:1]/2,,,,,,3-8[8:1],,
{8}8-3[8:1],,,7<4[8:1],4<7[8:1],,,2-5[8:1],
{8}5-2[8:1],,,6<1[8:1],1<6[8:1],,,2,
{16}2h[16:3],,,4h[16:3],,,5h[16:3],,,7h[16:3],,,3-8[8:1],,,,
{8}3-7[8:1],4h[16:1],3,5h[16:1],8<5[8:1],2,{32}1/8b,2,3,4,,,,,
{8}2-5[8:1],1,8>3[8:1],7,6-1[8:1],,,,
{16}1<6[8:1]/4>1[8:1],,,,,,,,7,8,,6,,6,,2-5[8:1],
{16},,4,,8-4[8:1],,7,,5-8[8:1],,,,,,,,
{16}2>5[8:1]/6<1[8:1],,,,2-7[4:1]/6-3[4:1],,,,,,,,,,6,5,
{8}7-4[8:1],8,1<6[8:1],2,3-8[8:1],,,,
{16}8>3[8:1]/5<8[8:1],,,,,,,,2,1,,3,,3,,7-4[8:1],
{16},,5,,1-5[8:1],,2,,4<7[8:1],,,,,,3h[16:1],,
{8}3-8[8:1],5h[16:1],3,6h[16:1],1-5[8:1],2,1/3h[16:1],3h[16:1],
{4}3<6[8:1],2-5[8:1]/3,4-8[8:1]/2,1-5[8:1]/4,
{4}8-4[8:1]/1,6<1[8:1]/8,7-4[8:1]/6,6/7,
{8}34,15,34,15,3<6[8:1]/4>1[8:1],,,,
{8}7<4[8:1]/3>8[8:1],,3-6[4:1]/7-2[4:1],,,,,6h[16:1],
{4}6>3[8:1],7-4[8:1]/6,5-1[8:1]/7,8-4[8:1]/5,
{4}1-5[8:1]/8,3>8[8:1]/1,2-5[8:1]/3,3/2,
{8}65,84,65,4-7[12:1]/8-5[12:1],6-1[12:1]/5-1[12:1],,,,
{8}6-2[8:1],5h[16:1],6,4h[16:1],1>4[8:1],7,{32}5/1b,6,7,8,,,,,
{16}2h[8:1]/4h[8:1],,,1h[8:1]/5h[8:1],,,3h[8:1]/8h[8:1],,,1h[8:1]/6h[8:1],,,7h[8:1]/4h[8:1],,,,
{16}6h[16:3],,,5h[16:3],,,4h[16:3],,,3h[16:3],,,5-1[16:1],,,,
