&title=云·原神
&artist=miHoYo
&first=0.037
&des_5=O1
&lv_5=原神,启动!
&inote_4=(115)
{8},,,,,,,,,B7/B8/B1/B2/B3/B4/E5/D5,,8-6-3s7[16:6],,,,
{8}2x,2x,{16}2xh[16:3],,5xv2[8:1],5xv8[8:1],,,,,,,
{8}1,7/2,5,3/4,2/5,1xb-5[8:1],8/2,{48}1/7x,E7,E6,A5,,,,,,,,,
{8}4/6,4/6,2h[8:1]/7,{16}8v5[8:1],2v5[16:1],,,,,,,6,,
{8}3/4,1,7/8,7/8,6-3[8:1]/2,1/8,{48}6/2,E2,B1,B8,E8,,,,,,,,
{8}1/8,4/5,1h[16:6],{16}8s4[16:4],8,,,,,,,
{8}2-7[8:1],3-6b[2:1],2,3,1,2-7[33#32:1],1,3-6[41#32:1],,
{8}1/8,4/5,1/8,{16}2x,3x,,,8,,1,,
{8}2/5,3/7-5[8:1],4,2-4[8:1]/7,1-5[8:1],2,1,2b,,
{8}8<5[8:1]/2,5>2[8:1],2,{16}1-5[8:1],1,,,2b,,,,
{8}1s5b[4:1],1<1[2:1],B1f,,,B4f,B3f,B2f,,
{8}2`7,3`6,4`5,{16}2-5[8:1]`3,2`3-8-5[16:3],,,,,,,1,,3/4-2[8:1],,8-4[8:1],,4,,8,,
{8}1b,2b,3b>6[16:3],,5<2[16:3],,4-2-8-6[16:3],,5,4-2[8:1],,1-5[8:1],,8x-6[8:1],8x-2[8:1],8x,8xb-4[8:1],,6xb<2[16:3]/8xb,,
{8}6/5>2[8:1],,1^6[8:1]/5,,1,2-4[8:1],1,2-6[8:1],7-3[8:1],2,7,1,2xb-6[8:1]/7xb-3[8:1],,2xb/7xb,,
{8}5w1b[8:1],,5,,8-6-2[8:1]/2,2-4[12:1],8/1-5b[2:1],,,,,,1-5[8:1],,
{8}6b<3[16:3]/1,,4>7[16:3],,5-7-1-3[16:3],,4,5-7[8:1],,8-4[8:1],,1xV36[16:3],1x,5xV72[16:3],5xb,,3xb>5[16:5],,4,,3,4>6[16:3],,{24}E4,E3,E2,E1,E8,E7f,,,,
{16}4/5,,,3/6,2/7,,
{32}1/8,2/7,3/6,4/5,1b/2b,,,,,
{1},
{8},{16},,6?-3[16:9],,,,,,,,,,
E
