&title=Chartreuse Green
&artist=t+pazolite
&first=0.02
&des=Birthday Of
&lv_6=13+
&inote_6=(180){1},
{1},
{2},6b-3[1:3]/3b-6[1:3],
{1},
{1},
{1},
{2},6bp3[1:3]/3bq6[1:3],
{1},
{1},
{1},
{2},4h[4:1]/6h[4:1],
{8}3h[4:1]/5h[4:1],,,,4h[4:1],,6,3h[4:1],
{8},5,2,,1h[4:1]/7h[4:1],,,,
{8}2h[4:1]/8h[4:1],,,,7h[4:1],,4,6v5[32:5]/4,
{8},2,2,3,5,4,6,5,
{8}7,4,6,3,5,2,6,3v4[32:5],
{8},8,7,6,4,4,5,3,
{8}6,6,4,7V15[8:3],7z3[2:1],,,,
{4},,2b/4bV68[1:1],2,
{4}3,3,4,4,
{16}3/8,,2,1,2,,3/8,,4V28[1:1],,,,8,,,,
{4}7,7,6,6,
{16}1/6,,7,8,7,,1/6,,5,,2,4,3,,7,5,
{16}6,,3,4,2,,6,5,7,,3,4,1,,6,5,
{16}8,,2,4,1,,3/7,,2,8,2,8,3,7,3,7,
{16}4,6,4,6,3,5,3,5,2,6,2,6,1,7,1,7,
{8}2pp3[8:1],8b,8b,,2b-6[8:1]/6b-2[8:1],,,,
{16}8-5[8:1],,8-3[8:1],,,,,,4<7[8:1],,,2,,,3,,
{8}4v1[8:1]*-8[8:1],,4,,2/6,3-1[8:1],5,3,
{8}4<6[8:1],4>2[8:1],,,8-4[8:1],,2,1-5[8:1],
{8},5,6,7,7b-3[8:1]/3b-7[8:1],,,,
{16}1>4[8:1],,1<6[8:1],,,,,,5V31[4:1],,,7,,,6,,
{8}5-1[8:1]*v8[8:1],,5,,3/7,6-8[8:1],5,6,
{8}2-4[8:1],1,2,7,
{16}6,5,7,4,5,3,7,5,8,3,5,2,7b,,,,3b-7[8:1]/7b-3[8:1],,,,3/7,,,,
{16}1-4[8:1],,1-6[8:1],,1,,,,5V31[4:1],,,7,5,,6,,
{8}5-2[8:1]*-8[8:1],,5,,3/7,6-8[8:1],4,6,
{8}5-3[8:1],5-7[8:1],,,1-5[8:1],,6/1,7-3[8:1],
{8},3/7,2,1,2b-6[8:1]/6b-2[8:1],,2/6,,
{16}8<5[8:1],,8>3[8:1],,8,,,,4V68[4:1],,,2,4,,3,,
{8}4-1[8:1]*-7[8:1],,4,,6/2,3-1[8:1],5,3,
{8}4-6[8:1],4-2[8:1],,,8-4[8:1],,3/8,2,
{16},,7/3,,1h[1:0],1h[1:0],1h[1:0],1h[1:0],1-7[8:1],,,,1V35[16:3],,,,
{8}6z2[8:3],,6h[4:1],,,7,8V64[16:3],,
{8}3/8,2,1-3[8:1],,1V75[16:3],,4qq1[8:3]*pp7[8:3],,
{8}4,,,,2-5[8:1]/6-3[8:1],,6/2,,
{8}6-1[8:1],2-5[8:1],6,2,8bz4[8:3],,,,
{8}1>4[8:1],,1V75[16:3],,1/5,4-8[8:1],3,,
{8}3,2,1V38[4:1],,1/8-6[8:1]*-5[8:1],,,,
{8}7<5[8:1]/4>2[8:1],,7V16[4:1]/4,,,2,3b,4b,
{48}6h[48:1],5h[48:1],,,,,6h[48:1],5h[48:1],,,,,6h[48:1],5h[48:1],,,,,6h[48:1],5h[48:1],,,,,
{8}7/4-2[8:1],,4V68[16:3],,
{8}1s5[8:3],,1h[4:1],,,2,3V52[4:1],,
{8}6,7,8-6[8:1],,8V24[16:3],,5qq1[8:3]*pp1[8:3],,
{8}5,,,,2>5[8:1]/8<5[8:1],,2/8,,
{16}7-5[8:1],,4,,7,,3,,2/4,,,,3,5,3,,
{16}6/4,,,,7,5,7,,6/4,,,,1>4[8:1]*<6[8:1],8,1,,
{16}1,,,,3/7,,6,5,6,,3,4,3,,6,5,
{16}7,,3,4,2,,6,5,8,,,,1h[8:1],,2h[8:1],,
{8}3h[8:1],4h[8:1],5h[8:1],6h[8:1],7bqq4[2:3]*qq1[2:3],,,,
{1},
{2},8h[4:1]/3h[4:1],
{8}2h[4:1]/7h[4:1],,,,1h[4:1]/6h[4:1],,,1h[4:1]/6h[4:1],
{8},,1/6,,5h[4:1]/2h[4:1],,,,
{8}3h[4:1]/6h[4:1],,,,4h[4:1]/7h[4:1],,,4h[4:1]/7h[4:1],
{8},,4/7,,6h[4:1]/5h[4:1],,,,
{8}7h[4:1]/4h[4:1],,,,8h[4:1]/3s7[8:3],,,8w4[4:1],
{8},,,,2qq3[8:5]/6,,6,,
{16}5,,,,5,,,,5h[4:1],,,,3,,5h[4:1],,
{8},3,5,4/6,7pp6[8:5]/3,,3,,
{16}4,,,,4,,,,4h[8:1],,6,4h[8:1],,6,4h[8:1],,
{16}6,,5,,6/4,,6/4,,7/3,,6,5,6,,7,,
{16}6/2,,3,4,3,,2,,7/3,,2,1,2,,3,,
{16}6/2,,7,8,7,,6,,3,5,3,5,2,6,2,6,
{16}1,7,1,7,2,8,2,8,3-1[8:1]*-8[8:1],,,,3V57[4:1],,,,
{8}7b,,8b,,1>4[8:1],3,5<8[8:1],7,
{8}2q6[8:1],4,7<4[8:1]*>2[8:1],,7,,3,1-5[8:1],
{8},1/6,7,,8/5,7,2/5,3,
{8}4/7,6,1/4,2,5-8[8:1]/3,2-4[8:1],5,2,
{8}1w5[8:1],,1,,7<4[8:1],6,3>8[8:1],2,
{8}3V58[16:5]/6-4[8:1],,3/6,,2-4[8:1],,2/6,7-3[8:1],
{8},2/7,1,1,1/4,2,7/4,6,
{24}1,2,3,4,5,6,8,7,6,5,4,3,
{4}1b<5[4:1],5>1[4:1],
{8}1,8,7,6,5<8[8:1],7,1>4[8:1],3,
{8}6q2[8:1],8,3>8[8:1]*<6[8:1],,3,,7,8-4[8:1],
{8},8/3,2,,4/1,2,7/4,6,
{8}2/5,3,8/5,7,2-4[8:1]/5,6-1[8:1],2,6,
{8}5w1[8:1],,5,,3>8[8:1],2,7<4[8:1],6,
{8}2-5[8:1],2,6-1[8:1],6,3-8[8:1],3,7-4[8:1],7,
{8}1-5[8:1],1,8,8,
{16}4,7,3,6,2,5,1,6,
{24}8,1,2,3,4,5,8,7,6,5,4,3,1,2,3,4,5,6,1,8,7,6,5,4,
{8}1bs5[8:1],3b/7b,1b,,7/3h[8:1],7,3h[8:1],7,
{8}7/3h[8:1],,7/3h[8:1],,7-5[8:1]/3,,3/7,2-4[8:1],
{16},,6/2,,7,,8,,8<5[8:1],,,,1>4[8:1]/8,,,,
{16}7-5[8:1]/1,,,,7/5,,4,,,,3,4,3,4,2,,
{8}1h[8:1]/5,,1h[8:1]/5,,1h[8:1]/5,5,1h[8:1],5,
{8}1h[8:1]/5,,1h[8:1]/5,,2-5[8:1]/6,,6/2,7-3[8:1],
{16},,2/7,,1,,1,,2,5,3,6,4,7,3,8,2,7,1,6,2,5,3,6,4,,8,,3,,7s3[8:3],,2z6[4:1],
