&title=Ride on shooting star
&artist=The Pillows
&first=-0.07
&des=Twilight
&lv_5=13+
&inote_5=(138.54){4},{16}3,4,{8}3h[4:1],,5h[4:1],,4h[8:3],
{4},{16}5-7[8:1],4,{8}5,,2,{16}4-8[8:1],5,{8}4,
,7,{16}6,5,{8}6h[4:1],,4h[4:1],,5h[8:3],
{4},{16}4-2[8:1],5,{8}4,,7,{16}5-1[8:1],4,{8}5,
,2,{16}3,4,{8}3h[4:1],,5h[4:1],,4h[8:3],
{4},{16}5-7[8:1],4,{8}5,,2,{16}4-8[8:1],5,{8}4,
,7,{16}6,5,{8}6h[4:1],,4h[4:1],,5h[8:3],
{4},{16}4-2[8:1],5,{8}4,,7,{16}5-1[8:1],4,{8}5,
,2,{16}3,4,{8}3h[4:1],,5h[4:1],,4h[8:3],
{4},{16}5V71[16:3],4,{8}5,,3h[4:1],,2v4[8:1],
,8,,7h[4:1],,5h[4:1],,6h[8:3],
{4},{16}5-1[8:1],6,{8}5,,7h[4:1],,8V64[16:3],
,3,,2h[4:1],,4h[4:1],,3h[8:3],
{4},{16}4V68[16:3],3,{8}4,,2h[4:1],,1v3[8:1],
,6,,7h[4:1],,5h[4:1],,6h[8:3],
{4},{16}5-1[8:1],6,{8}5,,7h[4:1],,8V64[16:3],
,3,2,1b-3[8:1]*-7[8:1],,1,,6,
4,2/5-3[8:1],,6,,5,4,6/3,
2,1/4-8[8:1],,3,,2,3,4-8[8:1]/6-4[8:1],
,4/6<4[4:1],,1h[4:1],{4},{8}1,5/2-5[8:1],
,8,{4}8,{8}4,3/5h[4:1],,4-2[8:1],
4,6-4[8:1],6,1,1,3,3,5-3[8:1],
5,6-1[8:1],6,2,2,3,3,4/5,
5-2[8:1]/4-7[8:1],3/6,{4},{8}4/3,2,5/6,7,
3/4,{16}2,6,4,5,{8}1b-5[8:1],,7bv4[8:1]/1bv4[8:1],,1/7,
,8/3-8[8:1],,8bV25[4:1]/3bV15[4:1],{2},{8}6,
8/7,{16}1,8,{8}2-6[8:1],,2v5[8:1]/8v5[8:1],,2/8,
,1b/6bp4[4:1],,2h[4:1],{4},2-6[8:1]*-4[8:1],
{8},,,7b-3[8:1],,7v4[8:1]/1v4[8:1],,1/7,
,2/6,3/4,8/1,{4}7/3q5[4:1],8b,
{8}7,6/5,{16}3,4,{8}2-6[8:1],,8v5[8:1]/2v5[8:1],,2/8,
,3b-7[8:1]/7b-4[8:1],,7>2[8:1]/3<6[8:1],,,,{16}4,8,
3,7,2,6,1,5,{8}1h[8:1],,4h[8:1],,2h[8:1],
,5/1,{16}4-6[8:1],3,{8}4,2,2,{16}4-8[8:1],5,{8}4,
6,6,{16}7,5,{8}7h[8:1],,5h[8:1],,6h[8:1],
,4/8,{16}5-3[8:1],6,{8}5,7,7,{16}5-1[8:1],4,{8}5,
2,2,{16}3,4,{8}3b,5,5h[8:1],4,4h[8:1],
{24}8,7,6,5V71[16:3],{12},{4}3h[8:1],{8}4,4V28[16:3],8,8-6[8:1]*-4[8:1],
,,,2h[8:1],,4h[8:1],,3h[8:1],
,5/2,{16}3-5[8:1],4,{8}3,8,8,{16}6-4[8:1],5,{8}6,
1,1,{16}2,4,{8}2h[8:1],,4h[8:1],,3h[8:1],
,8,{4}8h[4:1],{8}4h[8:1],6h[8:1],2h[8:1],4V68[16:3],
8,8-2[8:1]*-4[8:1],,,,5h[8:1],,4h[8:1],
,7/4,{16}6-4[8:1],5,{8}6,2,2,{16}3,4,{8}2-4[8:1],
1,5-1[8:1]*-7[8:1],,5b,,4/5,,3,
5,7/4qq5[4:1],,8,,7,6,4/5,
3,1/5-1[8:1],,6,,7,6,5-1[8:1]/2-5[8:1],
,5/2<4[4:1],,8h[4:1],{4},{8}8,4/7V58[16:3],
,1,{4}1,{8}4,6/5h[4:1],,8-6[8:1],
7,5-3[8:1],4,8,8,2,2,4-6[8:1],
5,3-8[8:1],2,7,7,6,6,5/4,
4-8[8:1]/5-1[8:1],2/7,{4},{8}5/6,7,3/4,2,
6/5,{16}7,3,5,4,{8}8b-4[8:1],,3>8[8:1]/8<5[8:1],,8/3V51[4:1],
,3/5,,8bV64[16:3]*V24[16:3],{2},{8}3,
2/1,{16}8,1,{8}7b-3[8:1],,2<7[8:1]/7<4[8:1],,7/2qq5[4:1],
,2/6,,7h[4:1],{4},7-5[8:1]*-3[8:1],
{8},,,1b-5[8:1],,6<1[8:1]/1>4[8:1],,1/6V48[4:1],
,6/4,,2,{4}1/3qq5[4:1],8b,
{8}7,6/5,{16}4,5,{8}3-7[8:1]*-8[8:1],,3,,6-1[8:1]*-2[8:1],
,6>8[4:1],,7b,{4},{16}2,6,4,5,
3,7,1,6,{8}3,8b<5[8:1],2,8-4[8:1],1,7>2[8:1],
6,7-3[8:1],4,7,1,1,{4}8b/1h[4:1],
{8}7,5/4,{16}6,5,{8}7b-4[8:1],8,7/1,1,2-5[8:1],
1,8/2qq6[16:5],8,7h[4:1],{4},7-3[8:1]*-5[8:1],
,{16}2,4,{8}1b>4[8:1],7,1-5[8:1],8,2<7[8:1],
3,2-6[8:1],5,2,8,8,{4}1b/8h[4:1],
{8}3,4/5,{16}6,5,{8}7b-4[8:1],8,7/1,1,2-5[8:1],
1,8/2V84[16:3],8,7,{4}7V51[16:3],{8}2,2V86[6:1]*V46[6:1],
,2,{4},{8}6/1,4/3h[8:1],,3/8,
{4}6h[8:1]/5v2[8:1]*v8[8:1],5b,{8},4/3h[8:1],,5/6h[8:1],
,3/4,{16}2-5[8:1],1,{8}2,6,6,{16}7-4[8:1],8,{8}7,
2,2v5[8:1]*v8[8:1],,,,4/6h[8:1],,5/3h[8:1],
,6/4,{16}7-4[8:1],8,{8}7,3,3,{16}2-5[8:1],1,{8}2,
6,6,{16}7,8,{8}7h[8:1],,5/3h[8:1],,5/7h[8:1],
,1/8,{16}2-5[8:1],4,{8}2,8,8,{16}7-4[8:1],5,{8}7,
1,1,,4h[24:7],{6},{96}6h[96:29],{24},,,,,,,{96}8w4[16:55],
E
