&title=醒餞の鳥
&artist=Feryquitous feat. Risa Yuzuki
&first=0
&des=Chapter 2: [Sora] no Kanata
&lv_5=14
&inote_5=(180){1},
{1},
{16}
3,,4,,5-2v5[4:5]*-1p5[4:5],,6,,,,,,,,,,
{16}
,,,,,,,,,,,,,,,,
{16}
3,,4,,5,,6q3q5[8:9],,,,,,4h[1:1],,,,
{16}
,,,,,,,,,,,,,,,,
{16}
6,,5,,4<7-4[4:5]*q8q4[4:5],,3,,,,,,,,,,
{16}
,,,,,,,,,,,,,,,,
{16}
6,,5,,4,,3q5[8:7],,,,,,7p5[2:1],,,,
{16}
,,,,,,,,,,,,4<3[8:7],,,,
{16}
5b,,,,,,,,,,,,,,7h[8:5],,
{16}
,,,,,,,,8q4[4:1],,,,,,,,
{16}
6q8q2[2:3],,,,,,,,1h[4:1],,,,,,,,
{16}
4h[4:1],,,,,,,,3,,,,3,,,,
{16}
3q8[8:3]/4<2[1:1],,,,,,,,,,,,,,3h[8:5],,
{16}
,,,,,,,,1p4[4:1],,,,4,,,,
{16}
3p2<5[1:1],,,,,,,,,,,,8,,8h[8:5],,
{16}
,,,,,,,,4,7,3,5,2,6,1,7,
{16}
8>3[8:1],,,,5<8[8:1],,,,,,4-8[8:1],,,,8-4[8:1],,
{16}
,,5,,7<4[8:1],,,,3-6[8:1],,2,,1h[4:1],,,,
{16}
8<5[8:1],,,,3>8[8:1],,,,,,4-7[8:1],,,,1>4[8:1],,
{16}
,,8,,7-4[8:1],,,,4-8[8:1],,3,,2h[4:1],,,,
{16}
1<6[8:1],,,,4>1[8:1],,,,,,5-1[8:1],,,,1-5[8:1],,
{16}
,,4,,2>5[8:1],,,,6-3[8:1],,7,,8h[4:1],,,,
{16}
1>4[8:1],,,,6<1[8:1],,,,,,5-1[8:1],,,,8<5[8:1],,
{16}
,,2,,3h[4:1],,,,5,3,6,2,8h[4:1],,,,
{16}
6b>1[2:1],,,,7,,,,8xh[2:1],,,,,,,,
{16}
2q5[2:1],,3,,,,7,,8xh[2:1],,,,,,,,
{16}
6>1[2:1],,,,7,,,,8xh[2:1],,,,,,,,
{16}
2,,3h[4:1]/4,,,,6,,5x/8xh[2:1],,,,4,,,,
{16}
3>1-5-3[8:5]*>1-5-3[8:5],,,,5,,,,8xhh[2:1],,,,,,,,
{16}
2,,3h[4:1]/1,,,,7,,8xh[2:1]/6x,,,,,,,,
{16}
7p3[4:1],,,,3p7[4:1],,,,8xh[2:1],,,,,,,,
{16}
7,,5-2[8:1]/6,,,,7,,8xh[4:1],,,,1h[4:1],,,,
{16}
3pp6[2:1],,,,2,,,,1xh[2:1],,,,,,,,
{16}
7qq2[2:1],,6,,,,2,,1xh[2:1],,,,,,,,
{16}
3pp6[2:1],,,,2,,,,1xh[2:1],,,,,,,,
{16}
7,,6h[4:1]/5,,,,3,,4x/1xh[2:1],,,,5,,,,
{16}
6-3[8:1],,,,1pp2[4:1]*qq7b[4:1],,,,1x,,,,,,,,
{16}
7,,6h[4:1]/5,,,,3,,4x/1x>6[4:1],,,,,,,,
{16}
8,,,,1/8,,,,2x/7x,,,,6,,3,,
{16}
4h[8:1]/5h[8:1],,,,,,,,3,5,3,7,5,7,1,,
{16}
1b,,6,5,6,,7,,2,1,3,1,4,,8,,
{16}
5-2[8:1],,7-4[8:1],,5,,7,,1-3[8:1],,3-8[8:1],,1,,4,,
{16}
5,,7,8,7,,6,,3,4,3,2,3,,1,,
{16}
4,,5s1[4:1],,6,,7h[4:1],,,,,,5,6,7,8,
{16}
1/2,,3,4,3,,2,,7,8,6,8,5,,1,,
{16}
4<8[4:1],,8,,2,,,,5V31[4:1],,1,,7,,,,
{16}
8,,4,5,4,,3,,8,1,7,2,6>3[8:1],,4,,
{16}
6,,2,,1-4[8:1],,,,5,,6,,7-4[8:1],,2-5[8:1],,
{16}
7,,2,,,,,,8b<5[16:3],,,5x>2[16:3],,,2x<8[8:1],,
{16}
8b<5[16:3],,,5x>2[16:3],,,2x<8[8:1],,8b<5[16:3],,,5x>2[16:3],,,2x,,
{16}
8bv3[8:1],,,,6,,7<4[8:1],,,,4pp3[8:3],,,,1,,
{16}
,,3,,1,,,,1/4,,2,3,1,,8,,
{16}
7/5-2[8:1],,,,8qq5[8:3],,,,1,,2,,3,,4,,
{16}
6-1[8:1],,6,,2-5[8:1],,,,6-1[8:1],,6,,4>5[2:1],,,,
{16}
8xh[2:1],,,,,,,,,,,,5/4,,,,
{16}
2-5[8:1]/1,,8,,7-3[8:1],,,,4,,4,,2,1,8,7,
{16}
6bxpp5[8:3]/2bxpp1[8:3],,,,,,,,,,,,,,2/6,3/7,
{16}
4/8-4[8:1],,,,,,,,2h[8:1],,3h[8:1],,4h[8:1],,5h[8:1],,
{16}
6>2[4:1],,,,8,,,,6p1[4:1],,,,2,,,,
{16}
3q8[4:1],,,,8q5[4:1],,,,5,,6,,7h[4:1],,,,
{16}
3b>7[4:1],,,,4,,,,5qq4[4:1],,,,6,,,,
{16}
7<3[4:1],,,,8,,,,1qq8[4:1],,,,2,,,,
{16}
3bV16[4:1],,,,4,,,,5-2-4[4:1],,,,6,,,,
{16}
7V15[4:1],,,,1,,,,2>6[4:1],,,,6,7,8,1,
{16}
2qq5[8:3],,,,,,,,,,,,,,2/8,3/7,
{16}
4q1[8:1]/6p1[8:1],,,,,,,,8-4[8:1]/2>4[8:1],,,,2-6[8:1]/8,,,,
{16}
2/5<1[4:1],,,,8,,,,4V28[4:1],,,,1,,,,
{16}
6p4[16:5],,,,8,,,,2>6[4:1],,,,1,,,,
{16}
7p3[4:1],,,,8,,,,2q6[4:1],,,,1,,,,
{16}
8>4[4:1],,,,4<8[4:1],,,,1,,2,,3-6[8:1],,,,
{16}
3bq5[2:1]/7bpp5[2:1],,,,,,,,,,,,,,,,
{16}
2>7[2:1]/6-4-2<1[2:1],,,,,,,,,,,,,,,,
{16}
8bh[1:2]/Cf,,,,,,,,,,,,,,,,
{16}
,,,,,,,,,,,,,,,,
{16}
,,,,,,,,,,,,,,,,
{16}
,,,,,,,,,,,,,,3,4,
{16}
3>3[2:3],,,,,,,,,,,,,,,,
{16}
5<8[2:1],,,,,,,,,,,,,,,,
{16}
2h[8:3]/1b,,,,,,4,,3/5,,,4/6,,,5/2,,
{16}
4/7<2[8:3],,,,1,,1h[8:3],,,,,,8,,7/1,,
{16}
6/2>5[8:1],,,,8,,7>2[8:1],,,,5,,4qq5[2:1],,,,
{32}
D6,D7,{16}D8,,,8,,,,6,,7,,2/8,,,,
{16}
4/6<1[8:1],,,,4,,3<6[8:1],,,,1,,8pp2[16:3]*qq6[16:3],,,,
{16}
8,,,,,,3/4,,3/4,,,5,4,,6q4[8:3],,
{16}
5h[2:1],,,,,,,,,,,,1<6[8:1],,,,
{16}
1/2,,,,3,,2,,1/7,,2/6,,3>5[2:1]/5,,,,
{16}
4h[2:1],,,,,,,,,,,,3/4,,,,
{16}
3/4,2,1,8,7,6,5,4,3/6,7,8,1,2,3,4,5,
{64}
6bx-4-8<6b[16:11]/3bx-5-1>3b[16:11],D7/D3,E2/E8,E1f,{16},,,,,,,,,,,,,,,
{16}
,,4/5,,4<8[4:1]/5,,,,8>4[4:1],,,,4,,,,
{16}
7-3[8:1],,,,3>5[4:1],,,,4,,4-8[8:1]*-7[8:1],,,,4,,
{16}
,,1,,2/7<5-2[4:1],,,,2>4-8[4:1],,,,1,,,,
{16}
2-6[8:1],,,,6V41[4:1],,,,8,,8>3[8:1]*<5[8:1],,,,8,,
{16}
,,,,4V25[4:1],,,,1,,8,,7p4[2:1],,,,
{16}
1h[4:1]/7,,,,,,2h[4:1],,,,,,2-6[8:1],,4,,
{16}
2,,,,8,,8,,5/8,,4/7,,6<3b[8:3]/3,,,,
{16}
6h[4:1],,,,,,,,5,4,5-8[8:1],,,,5/6,,
{16}
,,6,,6<1[8:1],,,,6>3[8:1],,,,6q7[8:3],,,,
{16}
6,,,,1,,,,4,5,4-1[8:1],,,,2/4,,
{16}
,,3,,3>8[8:1],,,,3<6[8:1],,,,3qq6[8:3],,,,
{16}
3,,,,7,,,,7,8,7-3[8:1]*-4[8:1],,,,7,,
{16}
,,2,,2V46[4:1]/5,,,,6,,7,,8h[4:1],,,,
{16}
5,,4,,3/5,,2,,6,5,7,,2/1,,3/8,,
{16}
4/7,3,2,1,7,6,5,4,2,1,3,8,4,7,5p3[2:7]*q7[2:7],6,
{16}
C/E2/B1f/E1/B2/B8,,,,,,,,,,,,,,,,
{16}
,,,,,,,,,,,,,,,,
{16}
,,,,,,,,,,,,,,,,
{16}
,,,,,,,,,,,,,,,,
{32}
5,4h[32:11],{16},,,6,,6h[2:1],,,,,,4p8p4[4:3],,3h[8:7],,
{16}
,,,,,,,,,,,,,,,,
{16}
3h[4:1],,,,4,,2h[2:1],,,,,,8p4p8[4:3],,7h[8:7],,
{16}
,,,,,,,,,,,,,,,,
{32}
6,5h[32:11],{16},,,4,,4h[2:1],,,,,,3q7q3[4:3],,2h[8:7],,
{16}
,,,,,,,,,,,,,,,,
{16}
2h[4:1],,,,5,,3h[2:1],,,,,,6q2q6[4:3],,8h[8:7],,
{16}
,,,,,,,,,,,,,,,,
{32}
7,5h[32:11],{16},,,6,,6h[2:1],,,,,,4q8q4[4:3],,4<7-4[8:5],,
{16}
,,,,,,,,,,,,,,,,
{16}
3h[4:1],,,,4,,2h[2:1],,,,,,8p4-8[4:3],,8v3-8[8:5],,
{16}
,,,,,,,,,,,,,,,,
{16}
6,,4,,5,,3h[8:3],,,,,,8-3>1p4[1:3]*-5<7q4[1:3],,,,
{16}
,,,,,,,,,,,,,,,,
{16}
,,,,,,,,,,,,,,,,
{16}
,,,,,,,,,,,,,,,,
{1}
,E
