&title=プロポーズ
&artist=内緒のピアス
&first=0.15
&lv_5=13+
&des_5=xiaon269
&inote_5=
(126){4},{48}B7,E7,{4},,{16},,,{48},B2,
E2,,,,,,,,,,,{8}B6/E7,B1/B8,{48},,,,,,,,,,,,B4,E4,{4},,{16},,,{48},B7,
E7,,,,,,,,,,,{8}B3/E4,B6/B5,
,,{4}7<4[4:1],{8}2,2,,1,
{4}1,{8}8,8,,2,{4}6-3<6[4:1],
{8}2,2,1b-4b[8:1],7,{4}1x/8x,3h[8:1]/6h[8:1],
C,{8}8/1,8,1,7/1,2,6,
3,3qq2[4:1]/6pp7[4:1],4/5,3/6,,,4,5<8[8:1],
8v5[8:1],E2/B2,{4}3x>8b[8:1],{8}6,6,7,8/1,
{4}8>3v5[8:3],8/7,{8}7,7h[8:1],4x,6,
6v1[8:1],4,3v8[8:1],3,,7,7-4[8:1],2-5[8:1],
7,2,6xpp1[2:1],4,4,3,2,3bh[8:3],
,,7,{16}8,1,,1,{8}2h[8:3],{16},,,6,
{8}6,{16}5,4,,4,{8}3x/6x,1/8,1/8,8,{16}1,8,
,8,{8}1h[8:1],,7-4[8:1],3x-8[8:1],7x-2[8:1],3x-6[8:1],7b,
3b,8b,7,{16}3,7/3,,4,{8}7/4,6/5,6/5,
7,{16}7,8,,8,{8}1,{16}8,2,{8}8,{4}1bs5>4z8b[8:5],
{8}1x,7,,6,7,{48},,,,,,,,,,,,A7/A2,D7/D3,{12}A6/A3,
,,,{4}3qq5[8:3]/6pp4[8:3],,,1/8,
Ch[8:1],{32},,,,,,,,A6,E6,{16}A5,{4},,{16},,{32}E4,
B4,{16}E5,,,,,,,,,,,{4}B8/B1/C,
{32},,,,1bx,1,1,1,1,1,1,1,1,1,{16}1,
{32}2bx,3x,4x,5x,6x,7x,8x,1x,2x,3x,{16}4x/Cf,,,{8}5x/4x,5x/4x,3-8[8:1],2,
3/7-4[8:1],6,7,1,8-3[8:1],6h[8:1],8-5[8:1],7h[8:1],
{4}8-4[8:1],8b/1b,{16}2,1,{8}2,1s5z1b[8:5],7/3h[8:7],
1x,{16},,,,,,,,,,,,2,1,
{8}2,5/4,{16}8,7,{8}8,4x/5x<8[8:1],{16}5,4,{8}5,4x>1[8:1],
{16}4,5,{8}4,8,{16}1,8,{8}1,{16}3bh[4:1],{32}D1,A8,D8,A7,D7,A6,{8}D6,
{4}5xpp5[4:1]/4xqq4[4:1],4/5,{8},2/6,1v4[8:1],5,
6/1,7,2/8<5[8:1],3,{4}2b/8b>3[8:1],{8}8,6,
{32}4x/5x,3x,{16}2x,{8}1/8,{4}D6/E6/D4/E4,{8}3/6,{16}5,4,5,4,{8}5,
4b-8[8:1]/5b-1[8:1],3/6,{4}5/4,{8}2/7,1/8,A6f/E6f/B6f/A3f/E4f/B3f,8x/1x,
8x/1x,1-5[8:1],8-6[8:1],1-3[8:1],8-4[8:1],1,{4}8,
{8}1/8,1/8,{4}Ch[8:1],{8},E7/A7,2,3,
4/A8,7,1>4[4:1],8h[8:1],,7,6,6/2,
7/3,8h[8:1]/4h[8:1],,3,3/7,2/6,{4}1h[8:1]/5h[8:1],
{8}1/5,{16}2/6,6/2,{8}6x/2x,7/3,7/3,5p8[4:1],2,3,
4,3,4q1[4:1],5,6,6,7,7/3,
6/2,5h[8:1]/1h[8:1],,6h[8:1]/2h[8:1],,7h[8:1]/3h[8:1],,8<4[4:1]/4>8[4:1],
,,,,,5-8[8:1],8<4[8:1],1,
1,2-5[8:1],1qq5[8:3],2,{4}1,{16}2,2,{8}2,
6/4,2/8,{4}1h[8:1],{16}8,7,{8}8,{4}1h[8:1]/6h[8:1],
{16}1,2,{8}3,{4}5x/4x,2-5[8:1]/6-3[8:1],2/6<8[8:1],
{8}6/2v5[8:1],3,2<7[8:1],7V13[4:1],2,6,{4}5bpp6[8:3]*qq5[8:3],
{8},,,,6x/3x,7/2,{24}8,1,8,1,,,{4}8b-2-7-3-6-4-8<8qq1pp1b[2:5],
A8f,{8},,,,,,,,,,,,,,,,,,,7xh[8:1],
{4}C,{8}4>1[8:1],{16}5,5,{8}4,8<5[8:1],{16}1,1,{8}8,
2,1,8,1/2>5[8:1],8,7,8x-4[8:1],7,
8/7,1x-5[8:1],2,1/2,8h[8:1],6h[8:1],4h[8:1],2h[8:1],
,,1/8,1/8,2,{16}4/5,5/4,{8}4/5,6,
{32}2x,3,{16}4,{32}1x,8,{16}7,{32},,,,8x,1,{16}2,{32}7x,6,{16}5,{32},,,,3x,2,{16}1,{32}7x,6,{16}5,
{8}E2/E6,{32}5bx,1bx,5bx,1bx,5bx,1bx,5bx,1bx,{8}5bx,4xq8[8:1]/8xq4b[8:1],1x/5x,{4}A4f/A8f,
{8}7-2[8:1],6,7/4-1[8:1],3,4/8-5[8:1],7,8/2-5[8:1],1,
{32}2,,,,,8,,,{8}7-4[8:1],7,8-5[8:1],8,1b-6[8:1],1b,
{16}4,3,{8}2,8/1w5[8:1],2,{4}1,{8}5xh[2:1],{32}D4,A3,D3,A2,
D2,A1,D1,A8,D8,A7,{16}D7,,,6,4,{8}3h[8:1],5,{16}3,5,{8}6,
4/7,{16}6,4,{8}3,5/2,{16}3,5,{8}6,4/6,{16}5,5,
{8}5pp1[4:1],4b,{4}2h[8:1],{8}2,3,4,{16}4/5,4/5,
{8}5/4,8,{16}8,2,7,1,{8}8,3/1,{16}2x,3x,2x,3x,
{8}2bx,2x-6[8:1],2x,3-7[8:1],3,4-8[8:1],4,5-1[8:1],
5,5b,{16},,8,8,7,7,6,6,5,5,4,4,
3,3,{8}2h[8:1]/8h[8:1],,7/1,1/7,{24}2,8,2,8,2,8,2,,,{8}1bh[4:1]/7bh[4:1],
,,1bqq8[4:1]*pp1[4:1],,A1f,,,2,
8qq3[2:1],,8,{4}1,{8}4,4,
8,{16}3/7,6,{8}2/6,1h[8:1]/5h[8:1],,1q4[2:1],,1,
{4}6,{8}8,6,7,{16}4/6,3,{8}3/7,2/8,
,8v5[8:1],,1h[8:1]/8v3[8:1],,7h[8:1]/8-4[8:1],,8,
1,{16}2,2,{8}2,3/6,1,1v4[8:1],,8h[8:1]/1v6[8:1],
,2h[8:1]/1-5[8:1],,1,6,{16}4,5,{8}4,2b/7b,
5,4v1[8:1],8-5[8:1],4,8bxv2[8:1]*-3[8:1],2<7[8:1],{4}8x,
{8}4z8[4:1],{16}7x,7x,{8}4,6,,5v8[8:1],1-4[8:1],5,
1bv7[8:1]*-6[8:1],7>2[8:1],{4}1x,{8}5s1[4:1],{16}2x,2x,{8}5,3,
,6v5[8:1]/3v5[8:1],,3/6<1[8:1],,6/4p2[4:1],5x,2bxqq7b[8:3],
{16},,D6,A6,{4}D7,{8},6,7,8/1-5[8:1],
2h[8:1],1,,3bh[8:1]/6bh[8:1],,4x/5x,{16}4x,5x,6,7,
8,4,3,2,1,8,7,6,5,1,2,3,4,5,6,7,
8,1,{8}2,{16}4x,5,3,6,2,7,8,1,8,1,8,1,
8,1,7,2,7,3,6,4,5,4,{8}5,{16}4x,4x,5,5,
3,3,6,6,2,2,7,7,1,1,7,7,2,2,6,6,
3,3,{8}6,{16}4x,5,3,6,3,7,2,7,1,1,8,8,
1,8,1,8,1b,8b,{8}1b,
E
