&title=Vertigo
&artist=Hylen feat. VGYO
&first=0
&des=HK07
&lv_5=13+
&inote_5=(174)
{1},
{4}4>5[2:7]/5,5h[64:1],,6h[64:1],
{4},7h[64:1],,8h[64:1],
{4},1h[64:1],,2h[64:1],
{4},3h[64:1],,4h[64:1],
{4}4>1[4:3],5h[64:1],,7h[64:1],
{4}8<5[4:3],1h[64:1],,3h[64:1],
{4}4-1[8:3],4h[64:1],5-8[8:3],5h[64:1],
{4}2h[64:1],1-5[4:1],7h[64:1],8-4[8:1],
{8}4/8bV63[8:11],,3h[4:1],,,2h[4:1],,,
{8}1h[4:1],,,2h[4:1],,,1-5[8:1],5,
{8}1bV36[8:11],,6h[4:1],,,7h[4:1],,,
{8}8h[4:1],,,1h[4:1],,,8-4[8:1],4,
{8}8bV63[8:11],,3h[4:1],,,2h[4:1],,,
{8}1h[4:1],,,2h[4:1],,,1-5[8:1],5,
{8}1bV36[8:11],,6h[4:1],,,7h[4:1],,,
{8}8h[4:1],,,1h[4:1],,,8-4[8:1],4h[384:1],
{8}8b,,2-5[8:1],,2/7,6,4-8[8:1],5,
{8}3/4,,1>4[8:1],7,1-6[8:1],,1/2,,
{8}2<7[8:1],,2/4,,5-8[8:1],4,5,3,
{8}2>5[8:1],,2/8,7,6pp5[16:5],,4/6,,
{8}4,2,5/3,7,6/4,2,5/3,7,
{8}6/4,1,5/3,8,6/4,1,5/3,8,
{16}3,,1/2,,7/8,,5/6,,4,5,3,4,2,5,1s5[2:1],6,
{8}1h[8:1],,6-2[8:1],6,,,3b/8b,,
{8}7-4[8:1],,1/7,8-3[8:1],,6h[16:1],6h[16:1],6h[16:1],
{8}7-3[8:1],,1/7,8-4[8:1],,6/8,7h[4:1],,
{8}3-8[8:1],,3/5,4-1[8:1],,1b,,,
{8}2-6[8:1],,2/8,1-5[8:1],,1/3,2h[4:1],,
{8}6-1[8:1],,4/6,5-2[8:1],,7h[16:1],7h[16:1],7h[16:1],
{8}6-2[8:1],,4/6,5-1[8:1],,5/7,6h[4:1],,
{8}3-8[8:1],,3/5,4-1[8:1],,1b,,,
{16}2-5[8:1],,,,2/7,,6,,4-8[8:1],5,3,5,4,,6,,
{8}7-3[8:1],,1/7,8-4[8:1],,6h[16:1]/8,6h[16:1],6h[16:1],
{8}7-2[8:1],,1/7,8-5[8:1],,6/8,7h[4:1],,
{8}3-8[8:1],,3/5,4-1[8:1],,1b,3,,
{8}3-7[8:1],,3/5,4-8[8:1],,2h[4:1]/4,,7,
{8}6-2[8:1],,4/6,5-1[8:1],,5/7h[16:1],7h[16:1],7h[16:1],
{8}6-3[8:1],,4/6,5-8[8:1],,5/7,6h[4:1],,
{8}2-5[8:1],,2/8,1-4[8:1],,1b,3,,
{8}2-6[8:1],,2/8-5[8:1],7,8-3[8:1],1,7,,
{4}5q8[1:1],4h[8:1],3h[8:1],3h[8:1],
{8}2h[8:1],,2h[8:1],,1/2,8q4[8:1],1/7,8,
{16}7<4[8:1],,,,3/7,,2v5[8:1],,,,2/6,7,8h[4:1],,,,
{8}3-8[8:1],8-3[8:1],3-5[8:1],5V38[16:3],7-4[8:1],7,7,,
{16}1-5[8:1],,,,1/6,,7<4[8:1],,,,1/7,2,3h[4:1],,,,
{8}6-4[8:1],4V61[4:1],6,1,2>5[8:1],2,2,8,
{16}7-4[8:1],,,,3/7,,2-5[8:1],,,,2/6,7,8h[4:1],,,,
{16}3-8[8:1],,8-4[8:1],,3,,5,,7,,7,,8-4[8:1]*-4[8:1],4h[128:1],8h[128:1],4h[128:1],
{8}8bV62[8:11],,3h[4:1],,,2h[4:1],,,
{8}1h[4:1],,,8h[4:1],,,1-5[8:1],5h[384:1],
{8}1bV37[8:11],,6h[4:1],,,7h[4:1],,,
{8}8h[4:1],,,1h[4:1],,,8-4[8:1],4h[384:1],
{8}8bV63[8:11],,3h[4:1],,,2h[4:1],,,
{8}1h[4:1],,,2h[4:1],,,1-5[8:1],5h[384:1],
{8}1bV36[8:11],,6h[4:1],,,7h[4:1],,,
{8}8h[4:1],,,1h[4:1],,,8-4[8:1],4h[8:1],
{8}8b,,2,,3/5h[4:1],4,,4,
(172)
{8}5/6h[4:1],,7,8,1/7h[4:1],1,1,,
{8}2/8h[4:1],3,3,,1h[4:1]/7,6,,6,
(170)
{8}2h[4:1]/5,,4,4,3h[4:1]/5,6,7h[4:1],,
(167)
{8}2,2,2/8,8,6/8,6,4/6,4,
(162)
{8}3/4,3,2/3,2,1/2,1,1/8,8,
(155)
{16}7/8,,5/6,,3/4,,1/2,,7,1,6,8,5,4,6,3,
(150)
{2}7q1[2:1],2h[2:1],
{96}1,,,3/8,,,4/7,,,,,,,,,,,,,,,,,,1b,,,,,,,,,,,,,,,,,,,,,,,,6h[12:1],,,,,,,,4h[12:1],,,,,,,,6h[12:1],,,,,,,,3h[12:1],,,,,,,,5h[12:1],,,,,,,,2h[12:1],,,,,,,,
{12}6h[12:1],4h[12:1],6h[12:1],3h[12:1],5h[12:1],2h[12:1],7V51[6:1]*V52[6:1],,,,,,
{96}8b,,,,,,,,,,,,,,,,,,,,,,,,3/7,,,4/6,,,5,,,,,,,,,,,,,,,,,,7h[12:1],,,,,,,,4h[12:1],,,,,,,,7h[12:1],,,,,,,,3h[12:1],,,,,,,,6h[12:1],,,,,,,,5h[12:1],,,,,,,,
{96}7h[12:1],,,,,,,,4h[12:1],,,,,,,,7h[12:1],,,,,,,,3h[12:1],,,,,,,,6h[12:1],,,,,,,,5h[12:1],,,,,,,,7<4[8:1],,,,,,,,,,,,,,,,,,,,,,,,4p8[8:1]*q8[8:1],,,3,,,2,,,1,,,,,,,,,,,,,,,
{12}4b,,,1h[12:1]/7h[12:1],,2h[12:1]/6h[12:1],,3h[12:1]/7h[12:1],,8h[12:1],3h[12:1],8h[12:1],
{12}1h[12:1],7h[12:1],3h[12:1],8h[12:1],2h[12:1],8h[12:1],1s5[8:1]*s5[8:1],,,8,,,
{12}6h[12:1],4h[12:1],6h[12:1],5-1[8:1],7h[12:1],4h[12:1],5,,,3h[12:1],8h[12:1],3h[12:1],
{12}1h[12:1],2h[12:1],8h[12:1],1-5[8:1],,,1/2pp7[4:1],,,,,,
{4}6h[6:1],5h[6:1]/6h[6:1],4h[6:1]/6h[6:1],3h[6:1]/6h[6:1],
{4}2h[6:1]/6h[6:1],1h[6:1]/6v3[8:1],8z4[8:1]*v5[8:1],8b,
{12}3,3-8[16:1],,8-5[16:1],,5-2[16:1],,6,,7h[6:1],,1-6[16:1],
{12},6-4[16:1],,4-8[16:1],,7>2[12:1],7h[4:1],,,,,,
{12}7,7-2[16:1],,2-5[16:1],,5-8[16:1],,3,,2h[6:1],,1,
{12}1-5[16:1],,5-3[16:1],,3-8[16:1],,1,,2h[6:1],,7h[12:5],,
{12},,,3,3-8[16:1],,8-5[16:1],,7,7h[4:1],,,
{12}4-6[16:1],,6-1[16:1],,1-4[16:1],,8h[96:1],,6,6h[1:2],,,
{96}3,,,,,,,,,,,,2,,,,,,1,,,,,,8,,,,7,,,,,,,,5,,,,4,,,,3,,,,2,,,,1,,,8,,,7,,,,,,5,,,4,,,3,,,2,,,1,,,8,,,7,,,,,,5,,
{96},,4,,,,3,,,,2,,,,1,,,,,8,,,,,,,,,7,,,,,,,,,,,5,,,,,,,,,,,,,,4,,,,,,,,,,,,,,,,,,,,,,,,,3,,,,,,,,,,,,,,,,,,,,,,,,
{1},
{1},
E
