&title=メルティランドナイトメア
&artist=はるまきごはん feat.MORE MORE JUMP!
&first=0
&des=Tail_R
&lv_5=12+
&inote_5=(140)
{16},,,,,,,,,,,,,,4,4,
{16}6h[2:1],,4,,4,,3,,2h[16:3],,,5,,,3h[2:1]/4,,
{16},,1,,8,,7,,6/1,,,4/5,,,7,,
{16}4h[2:1],,6,,6,,7,,8,7,6,5,4,,3/5h[2:1],,
{16},,4,,3,,2,,4/6,,,1/8,,,2,,
{1}8b<1[4:3]/1,
{8},8h[8:1],1h[8:1],2h[8:1],3h[8:1],4h[8:1],5h[8:1],6h[8:1],
{16}4bV25[4:1],,,,,,,,1,8,7,6,5,,3bqq6[8:5]*qq5[8:5]/6,,
{1},
{16}3,,4qq5[4:1],,5,,6,,7,,,8h[16:5],,,,,
{8}3b-5[32:3],,6-3[8:1],,2-6[8:1],,7>5[4:3],7,
{8},3h[8:5],,,,,,,
{8}6-4[32:3]/4,,3-6[8:1],,7-3[8:1],,2V85[32:20],2,
{8},6h[8:5],,,,,,,
{8}3-1[32:3]/1,,7-4[8:1],,2-6[8:1],,7V51[16:9],7,
{8},8-4[16:3],,,,,3/5,2h[8:4]/6h[8:5],
{16},,,,,,,,1,7,1,7,1,7s3[16:4],1z5[16:3],,
{16},,,,,,,,2h[16:3]/6h[4:1],,,,,,,,
{4}6V85[4:1]/1,2,3,5h[1:1]/4,
{4}1h[1024:1],2h[1024:1],3b-6[8:1],,
{8}5-2[8:1]/7,,8,7,6-1[8:1]/1,,1,2,
{4}3qq5[2:1],5,6,7,
{8}8p4[8:1]/4,,2,,8q4[8:1]/4,,6,6,
{8}7V51[4:1]/4,,1,2,3-8[8:1]*-1[8:1],,3,,
{8}4-1[8:1]/6,,1,8,7-4[8:1]/2,,4,3,
{16}2-7[8:1]/5,,,,7,,6,6,8,,2,1,3,,4/6,,
{4}8h[4:1]/2-6[8:1],2b,7-5[8:1]*-3[32:3],7,
{8}6,5,4q5[4:1],3,,7,7h[4:1],,
{8}4-7[8:1],,6,5,4-8[8:1],,6,5,
{8}4-1[8:1],,6,5,4-2[32:3]*-8[8:1],,4,,
{4}1h[4:1]/7p3[8:1],7,2-7[8:1]*-5[32:3],2,
{8}3,4,5q4[4:1],6,,2,2h[4:1],,
{8}5v2[8:1],,3,4,5-1[8:1],,3,4,
{8}5v8[8:1],,3,4,5^7[32:3]*q1[32:3],,5,,
{8}2-5[8:1],5,6,7,8-5[8:1]/4-1[8:1],,8/4,,
{8}1V35[4:1],4,5V71[4:1],6h[4:1],,,6,7,
{8}1-6[8:1]/8,,2,3,4-1[8:1]/7,,5,6,
{8}7-4[8:1]/8,,4,3,2w6[8:1],,2,,
{16}8h[8:1],,6,7h[8:1],,5,6V84[4:1],,,,1,,2,,3,,
{16}3h[8:1],,1,2h[8:1],,8,1qq2[4:1],,,,6h[1024:1],,6h[1024:1],,6h[1024:1],,
{4}1-3[32:3]/8-4[8:1],1/8,1-5[8:1]/8-6[32:3],1/8,
{8}2,1,8V64[4:1],7,3h[4:1],,,,
{1}2bpp5[2:1]/8b<2[2:1],
{16}2b/6b,,3,8,2^7[8:1],7,3,6,2,,5v2[8:1],5,,6,6,,
{16}7,,4,1,3,8,2,7,1bs5[16:3],,6,6,,7,7,,
{16}8,,6,1,7,2,6,3,7p3[8:1],,3^6[8:1],3,,2,2,,
{16}1,,2,1,3,8,4,7,5>1[8:1]*p1[8:1],,6/7,,5,,,,
{16}7b/8b,,2-5[8:1],1,3,8,2,,6,,2-5[8:1],1,3,8,2,,
{16}7,,3,1,2,8,4,7,5,6,4qq5[2:1],5,3,4,2h[8:3],,
{16},,,,,,,,6-8[8:1]/4,,8-4[8:1]/2,,4-2[8:1],,2qq7[8:3]*qq6[8:3],,
{4},,,4/5,
{16}6b/2b,,7,1,6,2,7,3,6^1[8:1],,1^6[8:1],1,,2,2,,
{16}3,,5,3,6,2,7,1,8bs4[16:3],,4,4,,3,3,,
{16}2,,3,8,2,7,3,6,2,5,3,4,2,3,1bV37[4:1],,
{8},7,6,5-1[8:1],,1,2,3,
{16}4/5,,7,1,6^1[8:1],2,7,3,6,,4v6[8:1],4,,3,3,,
{16}2b,,5,8,6,1,7,2,8s4[16:3],,4,4,,3,3,,
{16}2,,1,8,2,7,3,6,4b/5b,,3b/6b,,2b/7b,,1b/8b<2[2:1],,
{8},,,,,1w5[8:1],2/8,1b>7[8:11],
{1},
{4}1,1,2,2,
{8}3^5[32:3]/5,,6-3[8:1],,2q6[8:1],,7>5[4:3],7,
{8},3h[8:5],,,,,,,
{8}6^8[32:3]/8,,2v5[8:1],,7-3[8:1],,2V48[16:9],2,
{8},6-2[16:3],,,,,7/3,4h[8:4]/6h[8:5],
{16},,,,,,,,4,6,4,6,4,6z2[16:4],4s8[16:3],,
{16},,,,,,,,7/3,,,1,8b,,,,
