&title=ドリアン爆弾(feat. Roon_kun)
&artist=Daily天利
&first=1.39
&des=
&des_5=edhiroshi x hc
&lv_5=14
&inote_5=(190){16}6,3,5,2,4,1,8,6,7,5,6,4,5,3,{8}4,
{32}1/8h[1:1],2,3,4,{8}5,,,,,,,{2}2h[8:7],
6h[4:1],
6h[1:1],3h[2:1],
{4},,6h[4:1],{8}3,1,
{2}2h[2:1],6h[2:1],
{4},6h[4:1],,2,
{8}2h[2:1],,,6,,,,2,
,2h[4:1],,,{2}2h[8:3],
{8}6/1h[2:1],5,6,5,{4}7h[4:1],2,
2/4,6h[4:1],{8}2,2,{4}3,
{8}5/1h[2:1],4,5,4,{4}6,6,
{8}3,3,6/3h[4:1],6,7h[4:1],3,3,7,
2,3,2,3,{4}3,3,
{24}3,4,{12}5,{48},,,,{16}3,4,3,4,{8}3,3,{4}3,
{8}3,4,5,4,{4}3,4,
{32}1/8h[32:3],2,3,4,{8}5,{32}1/8h[#0.1184216],2,3,4,{8}5,{32}8/1h[32:3],7,6,5,{8}4,{32}8/1h[32:3],7,6,5,,,,,{8}3/4,
5,4/2,3,6/5,4,6/3,2,
6,5,4,5,1,2,{4}3,
{8}5,4,5,6,3,2,3,4,
1,2,6,5,1,2,{16}3,7,,,{8}7,
1,1,7,6,2,{4}3,
{8}5/4,3,5/4,6,{2}3h[4:1],
{8}2/5,4/7,3/6,5/8,2/5,4/7,6/8,2/4,
{24}3/5,6,{12}7,{24},,2/5,3,{6}4,{24}1/4,2,{12}3,{24},,{8}4,4,
1/3,2,6/4,5,2/4,5,6/8,7,
2/5,4,5/7,6,{16}4/2,1,2,3,4/7,5,6,7,
{8}8/1,4,6,7,3/5,4,5/8,6,
{16}1,5,2,6,3,7,4,8,7,3,6,2,{4}1h[4:1],
{8}4,2,4/6,5,2,3,4/7,5/6,
2/7,3,5/7,6,2/5,3/1,2/5,5,
{24}2/5,3,{12}4,{24},,4/7,6,{6}5,{24}4/7,,,3,,,{8}4/2,5,
{4}1/4,4/7,6/2,4/8,
{8}7/2h[4:1],5,{4}7,{8}8/4h[4:1],6,,,5/2h[8:1],
6,{32}2/6h[8:1],,,4,,,,,{8}7/4h[8:1],5,3/5h[8:1],3,
{4}2-6[8:1],2,{8}4/5,4/5,{4}2,
{8}2-6[0.1579##0.1579],2,1-5[0.1579##0.1579],1,8-4[0.1579##0.1579],8,{4}7b,
2/5,2,{8}4/5,3,{4}5b/4b,
{8}3,3,6b,4,3b/7b,3b/6b,{4}3b/7b,
{32}5b/2b,3/6,4/7,5/8,,,,,5b/8b,7/4,6/3,5/2,,,,,5b/1b,2/6,3/7,4/8,,,,,8/4,7/3,6/2,5/1,,,,,{4}1b-6b[0.9474##0.3158],
1b<6b[0.6316##0.3158],1bv6b[4:1],1b,
,2,{8}2,4,1h[4:1],8,
7b,2bh[8:1],5b,6bh[8:3],2b,3b,{4}4b,
1-7[8:1]*v6[8:1],1,{8}5/2,3,5/8,8,
1,2,1,2,1-5[16:3],1-6[0.1579##0.2368],{4}1,
{8}4/7,4/6,{4}4/5,{8}5,6,5,6,
3/5,2/6,{4}7/1,{8}1/2,2,3/2,3,
{4}5/7,6/4,{8}1/3,2,3/5,4,
1,1,2,2,{16}1/4,3,4,5,6,7,8,1,
{1}2/6bxh[1:1],
4bxh[1:1],
{2},6bx/E1,
{4}3bx/E1,{8},,,,E8,A8,
{2}A1,E2,
{4}E6,B8,,B5,
{1}Ch[32:48],
{4},,,{16},,,{32},5/2,
{64},,,,,,,2/5h[64:89],{4},,,{16},,{2}1,
1h[1:2],
{4}B6,B5,,B3h[8:6],
,,,6/1,
2,5/2h[2:1],,5,
,4b,5b,3bh[1:2]/6bV82b[4:7],
{8},,,,,,,,,,,,,,,,1/3,
2,3,3,1/3,3,{4}3/5>1[4:1],
1<5[4:1],5>1[4:1],{2}1w5[8:1],
{8}5bx,5bx,4bx,3bx,6/4,3,6/2,1,
1/8,2,5/3,6,5/2,2,8/1,7,
8/1,3,5/4,2p3[4:1],{2}5,
{8}5pp2[8:3],,,3,,,{4}5,
{8}6bh[4:3],3,3,3,3,3,3,3,
2,1,{12}3,{24}3,1,,1,{8}3,4,5/2,6,
{4}3/1v6[4:1],6/1,2q4[8:2],2/7,
{8}6b,6b,2b/5b,2bh[8:1]/5bh[8:1],,3b/5b,4b,6b,
{4}4b/6b,{8}4b,3b,{4}1b/8b,3b/6b,
{8}6/2,3,{4}4,2,{16}1,2,1,2,
{4}1/3,3/7,2/1,3/6,
{8}3/6,2/5,3/7,5/1,,2,3,3,
4/7,5,{4}2/1,{8}2/4,3,{4}6/7,
{8}2,2,2/5,3/7,5/1,4/8,2/6,3/7,
{4}5/6-2[0.1184##0.1974],{8}3,3,4/5,5,5/2,8,
1/5,2,3,4/6,,3-7[8:1],,3,
5-1[16:1],,,4-8[8:2],{4}7,5,
{8}1,2,3/7b,,{16},,,,1/3,2,3,4,
{4}5,1/2,4/5,7/8,
{8}2/6,3/5,4/1,3h[4:1]/7h[4:1],,,1/8,2,
{4}3,{8}4/5,3,{4}2,3h[4:1],
{16}1,2,5,4,3,5,7,4,6,5,3,6,4,7,{8}5,
{4}1h[8:5]/8h[8:5],,,1/8,
{8}3/7,2,4/5,6,1/3,4,5/7,8,
6/3,1,4/7,5,6/3,1,4/8,3,
{4}6/1,2/5,6/3,{8}1/6,2,
3/4,4/5,{4}6/5,1/3h[4:1],{8}1,2,
3,4,1,2h[8:3],,,5,3,
{4}4,1,{8}1,2,{4}4,
{8}1/2,2,2/3,3,3/4,4,{4}4/5,
{8}4/2h[4:1],5,6h[8:3],4,3,1h[8:3],5,4,
5h[8:3],2,{4}3,{8}4h[8:3],6,{4}7,
{8}8h[8:3],1,2,3bx,5bx,2bx,7bx,1bx,
6bx,3,5/3,2,6/4,3,7/1,2,
5/4,7,4/3,2V86[8:3],5,2,{4}6V42[8:3],
{8},2V86[8:3],7,7,,,{4}5,
{8}1/4,5/6,4/3,8/5,2/5,3/4,7/6,5/8,
4/1,2/3,7/4,5/6,7/2,3/6,{32}4/5,,,,,,,1,
8b/2b,3/7,4/6,5,
E
