&title=Ouvertüre
&artist=USAO & DJ Genki feat. ルーン
&first=-0.9
&lv_6=14
&des_6=Rhythlame
&inote_6=
(200){4},,,,,,,,{1}C,
C,
C,
C,
C,
{8}5/4,5/4,,,,,,,{1}Ch[1:1],
{8},,,,5/4,5/4,,,5h[4:1]/3h[4:1],
,,4h[32:7]/6h[32:7],,,{4}5h[4:1]/7h[4:1],
{8},6h[32:7]/8h[32:7],,,{4}7/1,4/5,
{8}6h[4:1]/4h[4:1],,,5h[4:1]/3h[4:1],,,{4}4h[4:1]/2h[4:1],
{8},3h[4:1]/1h[4:1],,,{4}2/8,4/5,
{8}4/6<1[8:3],,,1>4[8:3],,,{4}4<7[8:3],
{8},8h[4:1],,,{4}1,5/4,
{8}5/3>8[8:3],,,8<5[8:3],,,{4}5>2[8:3],
{8},1h[4:1],,,{4}8,6/2<7[16:3],
{8}2/5h[4:1],,,6h[4:1],,,{4}8/7h[4:1],
{8},1/8h[4:1],,,{4}1/2,3/7>2[16:3],
{8}7/4h[4:1],,,3h[4:1],,,{4}1/2h[4:1],
{8},8/1h[4:1],,,{4}8/7,6/2<7[16:3],
{8}5/2b,5,5,5,5,5,5<8[16:3],5,
2/5b,2,2,2,2/8,2,2/6,2,
{16}5,3,4,3,4,3,4,3,5,4,5,4,6,5,6,5,
6,7,8,1,2,3,4,5,{4}6/3h[2:1],7>2b[16:3],
{32}7b,D4f,A4,D5,A5,D6,{16}A6,,,,,{4}7/3V51[4:1],{8}1-6-2[16:5],8,
7h[8:1],,,6,5/3-7[8:1],4,{4}6,
5h[4:1],2h[4:1],8h[8:1],{32}7,B7,,,4,B4,,,,,,,8,
B8,,,3,B3,,,,,,,{2}1w5[8:1],
{4}7/3,4/8<6[8:1],{8}3,2,1x>3[8:1]/5x<7[8:1],1x/5x,
,,4x/8x<5[16:3],4x/8x,{2}8/4>1b[16:3],
{4}5,{8}1-3[8:1],7-5[8:1],1-4[8:1],7-4[8:1],1,7,
{4}8x-4b[8:1],8b,8xw4b[8:1],8b,
6b/2b-8[8:1],7-3[32:5],4-6[8:1],8-4[8:1],
2p5[4:1],5V31[4:1],{2}1V75[4:1]*p4[4:1],
{4},3h[4:1],5h[8:1],{32}1,B1,,,6,B6,,,,,,,2,
B2,,,5,B5,,,,,,,{2}4w8[8:1],
{8}2/6,2,1,1,8,8,7,7,
3,3,4,4,5,5,6,6,
{16}2,1,8,7,2,1,8,7,3,4,5,6,3,4,5,6,
{1}3>6b[2:1]*p6[2:1],
5h[1:1],
4h[1:1],
3h[1:1],
2h[1:1],
1<3[1:1],
3V17-5[1:1],
5>7[1:1],
7pp2b[4:3],
{4}4,4,4,4,
5,5,5,5,
3/E6,3/E7,3/E8,3/E1,
6/E2,6/E3,6/E4,6/E5,
{8}7,6,5,4,{16}3,1,2,1,2,1,2,1,
{4}2-5[8:1],7-4[8:1],3-8[8:1],6<2[16:3],
6,3V17[16:3],3,6<2[16:3],
6,3V17[16:3],3,5,
{8}6/4,{16}5,5,{8}5,6/4,{16}3,8,{8}2,{4}1-5[8:1],
{2}5w1b[8:1],{4}3x/7x,5h[4:7],
{32}E2f,E3,{16}E4,{32},,,,,,,,,E1f,E8,E7,,,,,,,,,{16}3b,4,,6,
7,8,1,2,3,4,,6,{4}7,4h[1:2],
{32}E8f,E7,{16}E6,{32},,,,,,,,,E1f,E2,E3,,,,,,,,,,,,,{16}7b,6,
{8}5,{16}3,2,1,8,7,6,{8}5,{16}3,2,{8}1,3x,
7/Cf,7,7,7,7,7,7,7,
2/Cf,2,2,2,2,2,2,2,
{4}7b/3b,{8}6b/2b,4b/8b,,1b/5b,,7b/3b,
,8/1,,5-1b[1.047##0.15]/4-8b[1.047##0.15],{2}6h[2:1]/3h[2:1],
{32},,,,,,,,5b/4b,Cf,,,,,,,{8}7,6/2,{24},,,1,2,3,
4,5,6,7,8,1,2/6x,3/7,4/8,5/1h[4:1],,,{4}6x,4-2-8[4:1]/8-5[8:1],
8V64[4:1],{8}4p7[4:1],4,,6v1[6:1],,8,
,3,{4}6/2-4[8:1],5/2-8[8:1],7/2-6[8:1],
2/5,B4/A4/E4/E5/7-3[8:1],2/7,5/B1/E1/A1/E2,
{8}3/7,6-8[8:1]/4-2[8:1],,4v1[8:1]/6v1[8:1],,6/4,,5x,
,4b/2b,5b/1b,8b/6b,,5b/7b,4b/8b,1b/3b,
,4b/2b,5b/1b,6b/8b,{16}7,8,1,2,7,8,1,2,
{4}Cf,8/4,{8}2,3/7,{24},,,8,7,6,
5,4,3,2,1,8,7/3x,6/2,5/1,4/8h[4:1],,,{4}3x,5-7-1[4:1]/1-4[8:1],
1V35[4:1],{8}5q2[4:1],5,,3-5[8:1]*-6[8:1],,3x-1[8:1]*-8[8:1],
,3x,{16},,5,6,7,8,1,2,{4}3/7-3[8:1],
5/7,B5/A5/E6/E5/2-6[8:1],7/2,4/B8/E1/A8/E8,
{8}6/2,3-1[8:1]/5-7[8:1],,5v8[8:1]/3v8[8:1],,3/5,,4x,
{4}7b/C,1b/C,7b/C,{8}5x,{16}2,1,
{8}2b,{16}8,1,{8}8b,{16}2,1,{24}2b,3,4,5,6,7,8,1,2,3,4,5,
{2}6h[4:3]/8h[4:1],1h[4:3],
6h[4:3],2h[4:1],
{32}6b/2bz6<6b[2:3],5/1,4/8,7/3,{8}2/6,,,,,,,{1}Cfh[4:3],
{4}7/1,2/6,5/3,{8}3,{16}3,8,
{8}3,{16}3,7,{8}3,{16}3,6,{8}3,{16}3,5,{8}3,3,
3/4,{16}6,5,{8}8/2,3/7,{4}6/4,{8}6,{16}6,1,
{8}6,{16}6,2,{8}6,{16}6,3,{8}6,{16}6,4,{8}6,{16}6,5,
{4}3-8[8:1]/7v4[8:1],7/3,{8}1v3[32:5]/5v7[32:5],2/6,{4}5/1,
2-5[8:1],7-4[8:1],3-8[8:1],5-1b[8:1],
5b,{8}2-6[8:1],8,{4}6-2[8:1],1-5[8:1],
5>2[8:1],2-6[8:1],6-2[8:1],{8}7,8,
{4}1w5[8:1],1,1w5[8:1],1,
{2}2v3[8:1]/8v7[8:1],{8}5,6/4,{4}3/7,
{8}8/2,7,6/4,7,8/2,7,6/4,7,
8p7[2:1],1,2,3,4,5,{4}6,
{16}6b,7,{8}5,{16}4b,5,{8}3,{16}8b,1,{8}7,2,6,
{4}5bh[8:1]/3bh[8:1],6bh[8:1]/2bh[8:1],5bh[8:1]/1bh[8:1],4bh[8:1]/8bh[8:1],
{2}3h[8:3]/7h[8:3],{16}8,4,1,5,2,6,3,7,
4,8,5,1,6,2,7xh[8:3],3xh[16:5],,,,,,,,,{2}6>3[8:1]/2<7[8:1],
6-1[8:1]/2v5[8:1],
{4}4-1[8:1],8-5[8:1],3,6h[4:1]/2<7b[16:3],
{32}2b,D6f,A5,D5,A4,D4,{16}A3,,,,,{4}2/6V48[4:1],{8}8-3-7[16:5],1,
2h[8:1],,,3,4/6,5,{4}3/7,
{16}7,8,1,2,7,8,1,2,6,5,4,3,6,5,4,3,
2/6b,1,8,7,6/2b,5,4,3,2/6b,1,8,7,6/2b,5/1b,4/8b,3/7b,
(195){2}2q4[0.3077##1.5869]/6bq8b[0.3077##1.5452],(192.5),
{8},(180),,,(170){4},(165){8}3,5,
4x,6,2,(150)7,(135)3x,4,(122.5)5,6,
(120)7x/4x,3,4x,5,{2}3x/6x-3[2:1],
E
