&title=εxceζ2
&artist=暂无
&first=0
&des=FRANCIIUMN
&lv_5=14
&inote_4=(180)
{1},,,
1>2-8-3-1-5-2>3>4>1[2:23],,,,,,
{8},,,,,,,,,,,,,,,,,,,,,,,,,,,,,,,,,,,,,,,,,,,,,,,,
{4}7bqq4[4:3]/3h[4:2],,,1h[4:2],,6,{4}2pp5[4:3]/8h[4:2],,,6h[4:2],,3,
{4}1-3[8:1],5-7[8:1],4>8[4:1],8<4[4:1],4-2-8[4:1],8,
{4}7<5[4:1],5>3[4:1],3pp7[4:2],1pp2[4:1],A1f,,
{4}8b-6[8:1],4-2[8:1],5<1[4:1],1>5[4:1],5-7-1[4:1],1,
{4}3-5[8:1],7-5[8:1]/3qq1[8:1],,{4}6-4[8:1],2>4[8:1]/6pp8[8:1],,
{8}7qq5[8:1]/5,7,4-2[8:1],4,8-6[8:1],8,8/1pp3[8:1],1,4-6[8:1],4,2,2,
{8}1-5[8:1],7-1[8:1],1-6-2[4:1],7,4<2[4:8],3,A4f/E5/E4,,,,,,
,,,,,,,,,,,,
{8}4,5h[8:1],4,5h[4:1],,3h[16:1],6h[8:1],5h[8:1],6,5h[8:1],,,
{8}4,5h[8:1],4,5h[4:1],,3h[16:1],6h[4:1],5,4,6h[8:3],8,7,
{8}5x,4xh[8:1],D6,4h[4:1],,6h[16:1],3h[8:1],4h[8:1],D3,4h[8:1],,,
{8}5x,4xh[8:1],5,4h[4:1],,6h[16:1],3h[4:1],4,5,3h[8:3],1,2,
{8}4bx,5xh[8:1],D4,5h[4:1],,3h[16:1],6h[8:1],5h[8:1],D7,5h[8:1],,,
{8}3x,5xh[8:1],3,5h[4:1],,2h[16:1],5h[4:1],2,3,4h[4:1],1,2,
3h[8:3],4h[8:1],,4h[8:1],,,4h[8:3],5h[8:1],,5h[8:1],,,
6h[8:3],5h[8:1],,5h[8:1],,,8b-6v4[4:1],,,A3f,,,
{8}2/4,{16}1,,{8}8,7/5h[8:1],6-4[8:1],{16}6,3,{8}3,2h[4:1],3-5[8:1],1,7-4[8:1],6,
{8}2,1h[8:2],{16}5h[16:1],,{8}6h[4:1],4-1[8:1],{16}3,5,{8}4,7-4[8:1],8h[8:1],,1-5[8:1],2h[8:1],
{8}1b,3,2h[8:2],6-8[8:1],7,,3V52[4:1],{16}2,1,{8}3,8-6[8:1],7,,1h[8:1],4,5-1[8:1]/2-5[8:1],37,2/5pp4[8:4],,{8}8h[2:1],,,,,,
{8}7/5,{16}7,1,{8}8,2/4h[8:1],3-5[8:1],{16}3,6,{8}6,7h[4:1],6-4[8:1],8,2-5[8:1],3,
{8}7,8h[8:2],4,3h[4:1],5-8[8:1],{16}6,4,{8}5,2-5[8:1],1h[8:1],,8,7h[8:1],
{16}6b,5,4,3,2,1,{8}7h[4:1]/8bx,,,6V47[4:1],{16}7,8,{8}6,1-3[8:1],2,,
{8}6h[8:3],4,4,5h[8:2],7,7,
{4}8bpp3[8:4]/4bpp6[8:2],,,{8}5b,,,5w1[4:7],,,{4},,,,,,,,,
{4}7-1-6-8-4-7[4:21],,,,,{8},,
{4}3h[4:4],,,,,{8},,
{4}2h[4:4],,,,,{8},,
{4}1h[4:4],,,,,{8}2hx[1:0],2hx[1:0],
{8}3h[8:1],4h[16:1],3h[8:1],4h[16:1],3h[8:1],4h[16:1],{8}3h[8:1],4h[16:1],3h[8:1],4h[16:1],3h[1:0],3h[1:0],
{8}5h[8:1],4h[16:1],5h[8:1],4h[16:1],5h[8:1],4h[16:1],{8}5h[8:1],4h[16:1],5h[8:1],4h[16:1],5h[1:0],5h[1:0],
{8}6h[8:1],5h[16:1],6h[8:1],5h[16:1],6h[8:1],5h[16:1],{8}6h[8:1],5h[16:1],6h[8:1],5h[16:1],6h[1:0],6h[1:0],
{8}7h[8:1],6h[16:1],7h[8:1],6h[16:1],7h[8:1],6h[16:1],{4}8z4[8:2],,,
{8}2h[4:1],3-1[8:1],4-8[8:1],3V52-6[8:3],4,,6,7-1[8:1],1-7[8:1],7,,,
{8}5,4V25[8:2],3,5V38[8:2],6,8-4[8:1],7V16b[8:2],,,,,,
{8}4,5-8[8:1],6>3[8:1],7,2-5[8:1],1-5[8:1],2-8-3-7[8:3],1,2,,,,
{8}4,5V74[8:2],6,4V61[8:2],3,1-5[8:1],2V83b[8:2],,,,,,
{8}3/4-1[8:1],,46,7v4[8:1],8/3-7[8:1],7,3,,{16}6,8,6h[8:1],,,,{24}1,2,3,
{8}4/7h[4:1],6-8[8:1],5-1[8:1],6V47-3[8:3],5,,3,2-8[8:1],8-2[8:1],2,,,
{8}5,4-1[8:1],3<6[8:1],2,7-4[8:1],8-4[8:1],7-1-6-2[8:3],8,7,,,,
{8}5,4V25[8:2],3,5V38[8:2],6,8-4[8:1],7qq8b[4:1],,,,,,
{8}1,2,3,4/8,{16}7h[1:0],5,{8}6,2,{16}3,4,{8}3,5,5,5,
{8}46,{16}8-4[8:1],1h[16:1],{8}7-4[8:1],6,7V51[4:1],3,2-5-3b[8:2],3,2,,,,
{8}53,{16}1-5[8:1],8h[16:1],{8}2-5[8:1],3,2V48[4:1],7,6-1-7b[8:2],5,6,,,,
46,7-4[8:1],1-4[8:1],8-4-6-2-4[8:4],,,A4/D4/D5/B4f,,,,,,
{8}7qq5[8:1],,,8b,,,1pp3[8:1],,,6-4[8:1],,,
{8}2V83[8:2],,7,7,,,5-8[8:1],{16}6,4,{8}5,3h[4:1],,,
{8}2b/6h[4:1],2,1,8h[4:1]/5,6,7,8h[4:1]/2,3,4,56,56,56,
{8}7,7h[8:1],{16}8,7,1,6,4,5,3,6,{4}1-3[8:1],1b-5[8:1]/7-4[8:1],7b/1,,
{8},,,,4qq4[8:4],,,,,,5-1b[4:1],,,,
{4},
8b-4[8:1],2-5[8:1]/8,{8}6-1[8:1]/2-8[8:1],,6/2>6[4:1],,6qq4[8:2],,8,8,
{16}8,1,2,3,1,2,3,4,{8}5-1[8:1],,5/7-4[8:1],,7/2V48[4:1],,2/5,6,7h[4:1],,{16}6,5,4,3,
{8}2-8[8:1],,
26,6pp5[8:3],6,{8}1,1,{8}2,
{8}3b-5[8:1],3,7v4[8:1],7,{8}3-8[8:1],3,7<4[8:1],7,1,1,2pp1[8:3],2,8h[8:1],,
{16}8,7,6,5,{8}4-8[8:1],,4/2-5[8:1],,2/7V51[4:1],,7/4,3,2h[4:1],,{16}3,4,5,6,
{8}7v5[8:1],,8,1,2-4[8:1],,1<5[4:1]/2,1,5V71[4:1],,1qq1[4:1],2,4,3,
{16}2,3,4,5,6,7,84,3,2,1,8,7,{8}62,2h[8:1],{16}1,2,8,3,5,4,6,3,{4}8-6[8:1],8b-4[8:1]/2-5[8:1],2b/8,
{16}2,8,2,8,3h[8:1],,1,2,5,4,6h[8:1],,5,6,4,7,3,8,2,1,7,1,7,8,6,6,5,5,4,4,2,2,1,1,3-5[8:1],,,,3,,{8}8b-6[8:1],7,4-2[8:1],3,5<1[4:1],,1>5[4:1],,5-7-1[4:1],,{16}1,2,3,4,5,6,75,4,3,2,1,8,
{4}7-4[8:1],3-8[8:1]/7-1[8:1],{4}3-5[8:1],7<5[8:1]/3qq1[8:1],37,
{8}2>6[4:1],2,6<2[4:1],,2V46[4:1],,6,,8qq4b[8:3],1,8,,2,2,
{16}2b-4[16:1],,,2-6[16:1],,,2-5-3-8b[8:3],,,2b,{16},,,,,{16}7b-5[8:1],,,{16}7-1b[16:1],,,7b-3[16:1],,,{8}7b,1,{32}1,2,3,4,5,6,7,8,1,2,3qq5[16:7],4,5,6,7,8pp5b[32:9],1b,,,,,,,,,,,,,,,,,,,,,,,,
{8}2h[4:1],3-1[8:1],4-8[8:1],3V52-6[8:3],4,,6,7-1[8:1],1-7[8:1],7,,,
{8}5,4V25[8:2],3,5V38[8:2],6,8-4[8:1],7V16b[8:2],7,7,,,,
{8}4,5-8[8:1],6>3[8:1],7,2-5[8:1],1-5[8:1],2-8-3-7[8:3],1,,,,,
{8}4,5V74[8:2],6,4V61[8:2],3,1-5[8:1],2pp1b[8:3],,,,,,
{8}3/4-1[8:1],,46,7v4[8:1],8/3-7[8:1],7,3,,{16}6,8,6h[8:1],,,,{24}1,2,3,
{8}4/7h[4:1],6-8[8:1],5-1[8:1],6V47-3[8:3],5,,3,{16}2-8-2[8:2],,{8}8,2,,,
{16}3,8,2-4-1-5[8:3],1,3,8,{8}2,5-3-6-2b[8:3],6,7,8-5-7[8:2],7,,,,,
53,2-5[8:1],8-5[8:1],1-7-2-6-3-5[8:4],,,,,,,,
&inote_5=(180)
{1},,,
1>2-8-3-1-5-2>3>4>1[2:23],,,,,,
{8},,,,,,,,,,,,,,,,,,,,,,,,,,,,,,,,,,,,,,,,,,,,,,,,
{4}7bqq4[4:3]/3h[4:2],,,1h[4:2],,6,{4}2pp5[4:3]/8h[4:2],,,6h[4:2],,3,
{4}1-3[8:1],5-7[8:1],4>8[4:1],8<4[4:1],4-2-8[4:1],8,
{4}7<5[4:1],5>3[4:1],3pp7[4:2],1pp2[4:1],A1f,,
{4}8b-6[8:1],4-2[8:1],5<1[4:1],1>5[4:1],5-7-1[4:1],1,
{4}3-5[8:1],7-5[8:1]/3qq1[8:1],,{4}6-4[8:1],2>4[8:1]/6pp8[8:1],,
{8}7qq5[8:1]/5,7,4-2[8:1],4,8-6[8:1],8,8/1pp3[8:1],1,4-6[8:1],4,2,2,
{8}1-5[8:1],7-1[8:1],1-6[8:1],7,4<2[4:8],3,A4f/E5/E4,,,,,,
,,,,,,,,,,,,
{8}4,5h[8:1],4,5h[4:1],,3h[16:1],6h[8:1],5h[8:1],6,5h[8:1],,,
{8}4,5h[8:1],4,5h[4:1],,3h[16:1],6h[4:1],5,4,6h[8:2],2,3,
{8}5x,4xh[8:1],D6,4h[4:1],,6h[16:1],3h[8:1],4h[8:1],D3,4h[8:1],,,
{8}5x,4xh[8:1],5,4h[4:1],,6h[16:1],3h[4:1],4,5,3h[8:3],7,6,
{8}4bx,5xh[8:1],D4,5h[4:1],,3h[16:1],6h[8:1],5h[8:1],D7,5h[8:1],,,
{8}3x,5xh[8:1],3,5h[4:1],,2h[16:1],5h[4:1],2,3,4h[8:1],1,2,
3h[8:3],4h[8:1],,4h[8:1],,,4h[8:3],5h[8:1],,5h[8:1],,,
6h[8:3],5h[8:1],,5h[8:1],,,8b-6v4[4:1],,,A3f,,,
{8}2/4,{16}1,,{8}8,7/5h[8:1],6-4[8:1],{16}6,,{8}3,2,3-5[8:1],1,7-4[8:1],6,
{8}2,1,{16}5h[16:1],,{8}6h[4:1],4-1[8:1],{16}3,5,{8}4,7-4[8:1],8h[8:1],,1-5[8:1],2h[8:1],
{8}1b,3,2h[8:2],6-8[8:1],7,,3V52[4:1],{16}2,1,{8}3,8-6[8:1],7,,1h[8:1],4,5-1[8:1]/2-5[8:1],37,2/5pp4[8:4],,{8}8h[2:1],,,,,,
{8}7/5,{16}7,1,{8}8,2/4h[8:1],3-5[8:1],{16}3,,{8}6,7h[4:0],6-4[8:1],8,2-5[8:1],3,
{8}7,8h[8:0],4,3h[4:1],5-8[8:1],{16}6,4,{8}5,2-5[8:1],1h[8:1],,8,7h[8:1],
{16}6b,5,4,3,2,1,{8}7h[4:1]/8bx,,,6V47[4:1],{16}7,8,{8}6,1-3[8:1],2,,
{8}6h[8:3],4,4,5h[8:2],7,7,
{4}8bpp3[8:4]/4bpp6[8:2],,,{8}5b,,,5w1[4:7],,,{4},,,,,,,,,
{4}7-1-6-8-4-7[4:21],,,,,{8},,
{4}3h[4:4],,,,,{8},,
{4}2h[4:4],,,,,{8},,
{4}1h[4:4],,,,,{8}2hx[1:0],2hx[1:0],
{8}3h[8:1],4h[16:1],3h[8:1],4h[16:1],3h[8:1],4h[16:1],{8}3h[8:1],4h[16:1],3h[8:1],4h[16:1],3h[1:0],3h[1:0],
{8}5h[8:1],4h[16:1],5h[8:1],4h[16:1],5h[8:1],4h[16:1],{8}5h[8:1],4h[16:1],5h[8:1],4h[16:1],5h[1:0],5h[1:0],
{8}6h[8:1],5h[16:1],6h[8:1],5h[16:1],6h[8:1],5h[16:1],{8}6h[8:1],5h[16:1],6h[8:1],5h[16:1],6h[1:0],6h[1:0],
{8}7h[8:1],6h[16:1],7h[8:1],6h[16:1],7h[8:1],6h[16:1],{4}8z4[8:2],,,
{8}2h[4:1],3-1[8:1],4,35,6V48[4:1],7,6/8-5-3-7[8:3],1,2,,,,
{8}5,4V25[8:2],3,5V38[8:2],6,8-4[8:1],7V16b[8:2]
,,,,,,
{8}4,5-8[8:1],7,6>3[8:1],2-5[8:1],1-5[8:1],2-8-3-7[8:3],1,2,,,,
{8}4,5V74[8:2],6,4V61[8:2],3,1-5[8:1],2V83b[8:2],,,,,,
{8}3/4-1[8:1],,46,7v4[8:1],8/3-7[8:1],7,3,,{16}6,8,6h[8:1],,,,{24}1,2,3,
{8}4/7h[4:1],6-8[8:1],5-1[8:1],6V47-3[8:3],5,,3,2-8[8:1],8-2[8:1],2,,,
{8}5,4-1[8:1],2,3<6[8:1],7-4[8:1],8-4[8:1],7-1-6-2[8:3],8,7,,,,
{8}5,4V25[8:2],3,5V38[8:2],6,8-4[8:1],7qq8b[4:1],,,,,,
{8}1,2,3,4/8,{16}7h[1:0],5,{8}6,2,{16}3,4,{8}3,5,5,5,
{8}46,{16}8-4[8:1],1h[16:1],{8}7-4[8:1],6,7V51[4:1],3,2-5-3b[8:2],3,2,,,,
{8}53,{16}1-5[8:1],8h[16:1],{8}2-5[8:1],3,2V48[4:1],7,6-1-7b[8:2],5,6,,,,
46,7-4[8:1],1-4[8:1],8-4-6-2-4[8:4],,,A4/D4/D5/B4f,,,,,,
{8}7qq5[8:1],,,8b,,,1pp3[8:1],,,6-4[8:1],,,
{8}2V83[8:2],,7,7,,,5-8[8:1],{16}6,4,{8}5,3h[4:1],,,
{8}2b/6h[4:1],2,1,8h[4:1]/5,6,7,8h[4:1]/2,3,4,56,56,56,
{8}7,7h[8:1],{16}8,7,1,6,4,5,3,6,{4}1-3[8:1],1b-5[8:1]/7-4[8:1],7b/1,,
{8},,,,4qq4[8:4],,,,,,5-1b[4:1],,,,
{4},
8b-4[8:1],2-5[8:1]/8,{8}6-1[8:1]/2-8[8:1],,6/2>6[4:1],,6qq4[8:2],,8,8,
{16}8,1,2,3,1,2,3,4,{8}5-1[8:1],,5/7-4[8:1],,7/2V48[4:1],,2/5,6,7h[4:1],,{16}6,5,4,3,
{8}2-8[8:1],,
26,6pp5[8:3],6,{8}1,1,{8}2,
{8}3b-5[8:1],3,7v4[8:1],7,{8}3-8[8:1],3,7<4[8:1],7,1,1,2pp1[8:3],2,8h[8:1],,
{16}8,7,6,5,{8}4-8[8:1],,4/2-5[8:1],,2/7V51[4:1],,7/4,3,2h[4:1],,{16}3,4,5,6,
{8}7v5[8:1],,8,1,2-4[8:1],,1<5[4:1]/2,1,5V71[4:1],,1qq1[4:1],2,4,3,
{16}2,3,4,5,6,7,84,3,2,1,8,7,{8}62,2h[8:1],{16}1,2,8,3,5,4,6,3,{4}8-6[8:1],8b-4[8:1]/2-5[8:1],2b/8,
{16}2,8,2,8,3h[8:1],,1,2,5,4,6h[8:1],,5,6,4,7,3,8,2,1,7,1,7,8,6,6,5,5,4,4,2,2,1,1,3-5[8:1],,,,3,,{8}8b-6[8:1],7,4-2[8:1],3,5<1[4:1],,1>5[4:1],,5-7-1[4:1],,{16}1,2,3,4,5,6,75,4,3,2,1,8,
{4}7-4[8:1],3-8[8:1]/7-1[8:1],{4}3-5[8:1],7<5[8:1]/3qq1[8:1],37,
{8}2>6[4:1],2,6<2[4:1],,2V46[4:1],,6,,8qq4b[8:3],1,8,,2,2,
{16}2b-4[16:1],,,2-6[16:1],,,2-5-3-8b[8:3],,,2b,{16},,,,,{16}7b-5[8:1],,,{16}7-1b[16:1],,,7b-3[16:1],,,{8}7b,1,{32}1,2,3,4,5,6,7,8,1,2,3qq5[16:7],4,5,6,7,8pp5b[32:9],1b,,,,,,,,,,,,,,,,,,,,,,,,
{8}2h[4:1],3-1[8:1],4-8[8:1],3V52-6[8:3],4,,6,7-1[8:1],1-7[8:1],7,,,
{8}5,4V25[8:2],3,5V38[8:2],6,8-4[8:1],7V16b[8:2],7,7,,,,
{8}4,5-8[8:1],7,6>3[8:1],2-5[8:1],1-5[8:1],2-8-3-7[8:3],1,,,,,
{8}4,5V74[8:2],6,4V61[8:2],3,1-5[8:1],2pp1b[8:3],,,,,,
{8}3/4-1[8:1],,46,7v4[8:1],8/3-7[8:1],7,3,,{16}6,8,6h[8:1],,,,{24}1,2,3,
{8}4/7h[4:1],6-8[8:1],5-1[8:1],6V47-3[8:3],5,,3,{16}2-8-2[8:2],,{8}8,2,,,
{16}3,8,2-4-1-5[8:3],1,3,8,{8}2,5-3-6-2b[8:3],6,7,8-5-7[8:2],7,,,,,
53,2-5[8:1],8-5[8:1],1-7-2-6-3-5[8:4],,,,,,,,
