&title=AOHARU
&artist=伊拉莎玛
&first=0.044
&lv_5=13+
&des_5=伊拉莎玛
&inote_5=
(128){4},,,,,,,,{8}6,
7,8,1,2h[8:7]/E1,E8,E7,E6,
,,,5,E2/E6,E3,E4/E8,E5,
8,7,6,5/E1,1,2,3,4-8[8:1],
,,,1,8/2,7/3,6/4,5,
3,2,1,8,7h[8:7]/E1,E2,E3,E4,
,,,4,E8/E4,E7,E6/E2,E5,
1,2,3,4/E1,8,7,6,5-1[8:1],
,,,8,1/7,2/6,3/5,4,
{4}4/5,5/4,4/5,5/4,
6/3,3/6,6/3,6/3,
7/2,7/2,7/2,7/2,
8/1,8/1,8/1,8/1,
{8}8/1,1,2/1,2,3/2,3,4/3,4,
4/5,5,6/5,6,6/7,7,8/7,8,
{16}1,8,1,8,2,7,2,7,3,6,3,6,4,5,4,5,
{32}4x,3x,2x,1x,8x,7x,6x,5x,4x,3x,2x,1x,8x,7x,6x,5x,{2}4xw8[8:1],
{4}2xV46[4:1],6V42[4:1],2V86[4:1],6V42[4:1],
2V46[4:1],6V82[4:1],2V85[4:1],5-3-1[4:1],
1-3-5[4:1],5V71[4:1],1V75[4:1],5V31[4:1],
1V35[4:1],5V71[16:3],,6x/2x,
7V13[4:1],3V17[4:1],7V52[4:1],2V86[4:1],
6V82[4:1],2V47[4:1],7V52[4:1],2V86[4:1],
6V82[4:1],2V47[4:1],7V13[4:1],3V17[4:1],
7V53[4:1],3V57[16:3],,8x/4x,
5/1-5[16:1],1x/5x>8[4:1],8V64[4:1],4V68[4:1],
8>6[4:1],6V42[4:1],2-5-8[4:1],8<3[4:1],
3V17[4:1],7V13[4:1],3<8[4:1],8V64[4:1],
4V68[4:1],8V25[16:3],,6x/2x,
{8}4/8-4[16:1],8,{4}8x/2-6[8:1],{8}2/8-4[8:1],7,8/1-5[8:1],2,
{4}1/7-3[8:1],2>5[8:1],{8}2/8<5[8:1],7,8/1>4[8:1],2,
1x-6[8:1],8,1x-5[8:1],5,1x-4[8:1],6,1x,7,
1,8,{16}1,8,1,8,1,8,1,8,{32}1xw5[8:1],2x,3x,4x,5x,6x,7x,8x,
{1}1x<1[0.9375##6.5625],
{8},,,,,,,,,,,,,E6,
E4,C,
{1},8x>8[0.9375##6.0938],
{8},,,,,,,,,,,,,E4,
E6,C,
{1},{4}5x/7x,
6/4,{16}5/3-8[8:1],{8},{16}4,{8}3,4,
{4}4x/2x,5/3,{16}4/6-1[8:1],{8},{16}5,{8}6,5,
{4}5x/7x,6/4,{16}5/3-8[8:1],{8},{16}4,{8}3,4,
{4}4x/2x,5/3,{16}4/6-1[8:1],{8},{16}5,{8}6,5,
4x/7x,4,4/5,4,4x/8x,{16}3,7,1,5,{8}2,
8x/3x,8,8/1,8,8x/4x,{16}7,3,5,1,{8}6/2,
{16}3x,5,4,5,3x,5,4,5,2x,5,4,5,1x,5,4,5,
4x/6x,6/4,,5/3,{8}3/5,{16}2/7,2/7,7/2,7/2,2/7,2/7,{4}1b>4[16:1]/8b<5[16:1],
1/8,{8}1-5[8:1],5-7[16:1],1,7,8-6[16:1],5h[8:1],
{4}8-4-2[16:3],{8}8,6,8-6[8:1],1,8-4[8:1],4-6[16:1],
8,2-6[8:1],1,2-8[12:1],5,2-4[12:1],7-5[12:1],2,
{4}7-3[8:1]*-1[8:1],7,{8}7-5[12:1],2-4[12:1],7,2,
8,2,8-4[8:1],4-2[16:1],8,2,1-3[12:1],4h[8:1],
{4}1-5-7[16:3],{8}1,3,1-3[12:1],8,1-5[8:1],5-3[16:1],
1,7-3[8:1],8,7-1[12:1],4,7-5[12:1],2-4[12:1],7,
{4}2-6[8:1]*-8[8:1],2,{8}2-4[12:1],7-5[12:1],2,7,
{4}1w5[16:1],Cf/1x-7-3[16:3],{8}1,5-1[8:1],7-3[8:1],5,
{4}7<4[8:1],{8}7,2,1-5[8:1],8-4[8:1],1-3[8:1],8-6[8:1],
1,8,1,5/2,1,2/8,7/3,6/4,
5-1[16:1],{4},{8}8,7-2[8:1],3-6[8:1],7,3,
8V64[8:1],4v7[32:3],8,2-6[8:1],1,2,8w4[8:1],7,
{4}8p5[4:1],{8}8,3,2-7[8:1],6-3[8:1],2-5[8:1],6-1[8:1],
2-8[12:1],6-4[12:1],2,6,1<7[8:1],7<5[8:1],5>3[8:1],3>1[8:1],
{2}Ch[2:1],{4}E8/B8/E2/B1/B2/A8/B7/B6/A7/A2/E6/B5/B4/E4/A1,C/B5/E7/E8/E1/E2/E3/E4/E6,
{8}4-8[12:1],4,6v1[32:3],6,3,3,8-5[16:1]*-3[16:1],8,
{4},{8}6-2[16:1],1s5[12:1],,8,7-2[12:1],7,
6-3[12:1],6,5-8[12:1],5,4-1[12:1],4,3<3[4:1]*<3[4:1],3,
{4},Cf,{8}7-3[12:1],2-6[12:1],7,2,
8-4[12:1],8,2v5[12:1],2,7,7,1z5[8:1]/8s4[8:1],8/1,
{4},{8}6/3,1/8-4[12:1],,8,3-8[12:1],3,
2-5[12:1],2,4-7[12:1],4,5-2[12:1],5,1-4[12:1]*-6[12:1],1,
{4},Cf,{8}1h[8:1],3h[8:1],5h[8:1],7h,
2b<7[8:1],3,4,5>2[8:1],6,7,8z4[8:1]*-5[8:1],8,
{4},{8}6/3,1/8-4[12:1],,8,2-7[12:1],3,
4,5-2[12:1],6,7,8-5[12:1],1,2,3>1[32:3]*<8[16:3],
{4},Cf,{8}8h[8:1],6h[8:1],4h[8:1],2h,
1/8-4[8:1],7,8/1-5[8:1],2,1/8<5[8:1],7,8/1>4[8:1],2,
1/7w3[16:1],{4},{8}6/1-5[12:1],,1,6,7,
2x/8x>3[16:1],7,8/6,5,7x/1x<6[16:1],2,1/3,4,
3/7,2/6,{16}1,5,1,5,{32}2/6,7/3,8/4,5/1,6,7,8,1,6/2-6[24:1],3/7,4/8,5/1,2,3,4,5,
{96}2b-4-8[4:11]/6b<2[4:11],B2,Cf,B6,
E
