&title=プラシイボ♥バトラー
&artist=OSTER project feat.音街ウナ
&first=0.04
&des=♥あゆり♥
&des_5=♥あゆり♥
&lv_5=14
&inote_5=(135){4},{16},,,,3-6[12:1],5h[16:3],,,{8}3,B7/E7/B6,
8-4[12:1],2h[16:3],{24}8<1[8:3],,,,,B2/E3/B3,,,,,,,,,,,,,{12}3,
{24}5-1[12:1],4,,6,,,,,,,{4}2h[8:1]/6b-8[12:1],{12}6-2[12:1],4h[6:1],{24},,{8}6,
{24}3,,3,,,4,5,,5,{8}4-8[12:1],5/6,4,B7/B6,
5-1[12:1],4/3,5,B2/B3,{12}6,{24}6,4,,4,{12}8,{24}8,2,,2,
{8}1<6[12:1],4>1[12:1],1,4,5bh[4:1],8,3bh[4:1],8,
7>5[4:1],5,{4}7,{8}C,{24}6,,6,{8}8,{24}1>4[12:1],,8h[6:1],
,,,{8}1-5[12:1],7,1,B7/E7,6h[8:1],{12}4,3h[8:1]/7h[8:1],{24},,,,,{8}1/7-3[12:1],
8,2,{16}4h[16:3],5,,7h[16:3],,,{8}4h[8:1],
6h[8:1],3h[8:1],5qq1[2:1],5h[8:5],,,,,,2/7,
{24}1-6[12:1],2,3,4,,,{8}1b,{24}2,,2,{8}4,{24}5<8[12:1],,4h[6:1],
,,,{8}5-1[12:1],{12}3,{24}3,5,,,{8}B3/E3,{24}8/4,,8/4,,,{6}7h[8:1]/3h[8:1],
{24},,,{8}5/3-7[12:1],4,6,{16}8h[16:3],1x,,3h[16:3],,,{8}7h[4:1],
{24},,,3,,3,{12}6qq2[2:1],6,{24},4,{2}6,
{8},1xh[4:1]/3xh[4:1],,,2/5,{24}3,,3,{8}5v2[12:1],6/4,
5bv8[12:1],7,5b,3-7[12:1],2/8,3/7,{12}6,{24}6,4,,4,
{8}5q1[12:1],3>8[12:1],5,3,{24}7h[8:1],,,,,3h[8:1],,,6h[8:1],,,4h[8:1],
,,,5p8b[8:1],6,7,{8}8,5/7h[4:1],{24},,,,,6,{12}8,{24}7,5,,6,
{8}4h[8:1],{24}5,,3,{12}4,{24}2,1,2,8,{8}3<6[12:1],B7/E7,3x/8-4[12:1],B3/B4,
8x/2<7[12:1],E7/B6,2x/5-1b[12:1],B1/B2,5x,{24}4<2[4:1],,6,{8}3h[8:1],4x,
{24},,,,,,{12}3,{24}3,4,,4,{8}5,4/6<4[4:1],5/7,6/8,
,5h[8:1],{12}3,4/6,{24},3,{8}5-2[12:1],3-8[12:1],,1bxh[4:1],
,B1,B3,B5,4h[8:3],{24},,,,,,8,7,6,
{16}5h[16:3],,,4V62[16:3],,6,,4,{4}8h[8:1],{24}4,5,6,7,8,1,
4,5,6,7,8,1,{8}3h[12:1],5-8[12:1],1/7,{24}5,,3-7[12:1],,,4/6,,,3,
,,,{8}8h[24:5],{24},,{6}1h[6:1],{24}7b,8,1,2,3,4,1b,8,7,6,5,4,
{8}1-5[12:1],8-4[12:1],1,8,{24}3h[24:5],,,,,6h[6:1],,,,{8}4h[8:3],
{24},,,1,8,7,{8}6,3/5,{12}2-5[12:1],{24}2,1h[8:1],,,,,,7-4[12:1],,7,
8h[8:1],,,,,1,,,,{8}3h[4:1]/5h[4:1],,,8-4[12:1],1/7,
{24}8<5[12:1],,,,,2h[6:1],{4}8,{8}4h[8:1],{24}3,,3,{8}5h[8:1],{24}4-8[12:1],,4,
{4}6h[8:1],{8}B7/B6,B2/B3,{24},,,6,,4-8[12:1],{12}5,3,{24},C,
,,,1,2,3,7-4[12:1],6,5,8,1,2,{8}3/A7f,2,{12}2,{24}8,1-5[12:1],,7,
{8}2,1/8b,{12}7,{24}1,8-4[12:1],,2,{8}7,8/1b,2,3,
4/6,5/3-7[12:1],8/4,3,6h[4:1],8,2h[4:1],4,
5-1[12:1],3-7[12:1],5,3,8,7/1,6/2,3/5,
{12}4,{24}6,4,,5,{12}3,{24}4,2,,2,{8}4-8[12:1],E7/B6,E3/B2,{16}1pp6[4:1],1h[16:7],
{4},,{12}1,{24}1,5,,5,{12}4qq8[4:1],4,,{4}4h[4:1],
C,{8}1pp4[4:1],8,{4}1,
{8}5pp8[4:1],4,{4}5,{24}1h[8:1],,,,,2,{12}1-5[12:1],{24}3,8,,2,
{4}1,{24}8,1,2,3/5-2[12:1],6,7,{8}8h[8:1],A5f,{12}7,{24}1,8p4[12:1],,2,
{8}7,8/1b,{12}2,{24}8,1q5[12:1],,7,{8}2,1/8b,7,6,
5/3,{24}4/6-2[12:1],,3,{8}5,6,3h[4:1],1,7h[4:1],5,
{12}4-8[12:1],{24}3,6-2[12:1],,7,{8}4,6,1h[8:1],{24}8-5[12:1],,2,,,,{8}8>3b[12:1],
4x-8b[12:1],,,5xh[8:1],{12}7-1[12:1],{24}4,6,,,{8}7/3-7[12:1],{24}4,,5h[6:1],
,,,,,,{8}6-1b[12:1],2-5b[12:1],6,2,{16}6,4,,6/2h[16:3],
,,7-3[12:1],8,{4}6,{8}1,2/4,{12}5,{24}5,3,,3,
{12}4,{24}4,2,,2,,,3,4,{12}3,{8}8,7/5,{12}4,{24}4,6,,6,
{12}5,{24}5,7,,7,,,6,5,{12}6,{8}4/3-8[12:1],E8/B8,6-3[12:1],E3/B3,
1-5[12:1],B6/B5,,C,3/7,4/6,{12}5,3,{24},4h[6:1]/6h[6:1],
,,,,,,,,,,,,{2}5h[4:1]/1V35-8[8:3],
{24}7xh[8:1],,,,,1xh[8:1],,,8,7,6,5,{2}4h[4:1]/8V64-1[4:1],
{24}2xh[8:1],,,,,8xh[8:1],,,1,2,3,4,{12}5,7h[8:1],{24},4h[8:1],,,5,6,7,8,
{8}1,{24}2,1,2,{8}1,{24}7,8,7,{8}8,{24}6,5,6,4-8[12:1],5,4,7,5,6,
{4}4,{12}1/8,2/7,{24},,{8}1/8,{24}2,3,2,4,3,4,3-8[12:1],,2/5,
,,,{8}3,{12}7h[6:1],{24}8,1,2,3,{4}6h[8:1]/4h[8:1],{12}3,{24}3,5h[8:1],,,{12}3h[24:5],
4,{24},6h[8:1],,,{6}2h[8:1],{24}3>8[4:1],,,C,,,{8}8<5[4:1],D2,
5>2[4:1],D7,2,D4,8h[8:1],{24}1,7,1,{12}7,{24}2,8,,3,
{12}7,4/6,{24},3/7,,,{6}2/8h[6:1],{48}1h[16:1],,,7h[16:1],,,{16}2h[16:1],6h[16:1],3h[16:1],5h[16:1],4h[16:1],6h[16:1],
3h[16:1],7h[16:1],2h[16:1],8h[16:1],{8}1<1[1:1],Cf,,,,,,,,,{2}6b<3>6[4:7],
{1},{4},,{24}4h[24:5],
,,,,5h[6:1],,,,{8}3h[8:1],
6h[4:1],E4,{4}E5,2/7,{12}E3,E5,E4,
{4}E6,E7/B5,{2}3b>6<3b[4:7],
{4},,{48}E6,B5,{24}B4,{4},,,{16},,{24},{8}5h[8:1],
{24}4h[12:1],,6,,,,{8}4h[8:1],
{12}5h[12:1],3,,5/4,{24}3,6,,,{8}8/5,7/4,6/3,5/2,
{12}4/1-5[12:1],1/4,{24},C,,,,,,,{8}1b>4[8:1],4q1[12:1],{4}1,
{8}8bx<5[8:1],5p8[12:1],{4}8,{8}1x,2/6,{12}3,{24}6,4,,5,
{12}3,{24}4,2,,4,5,6,7,8/4,,,{12}6,{24}4,7,,3,{12}6,{24}2,7,,,{8}1x-4[24:1],
{24}3,,3,{8}8x-5[24:1],{24}6,,6,,,,{8}B2/B3/E3,B7/E7/B6,{24}4,5,4,
5,3,4,3,6,5,{12}6,{24}4,5,,,{8}6/3>6[24:5],5/2,{24},,,4,,5h[6:1],
,,,{8}4h[8:1],6h[8:1],5,3/6<3[24:5],4/7,{12}5,5,{24},4h[6:1],
,,,6,,6,{8}3h[8:1],{24}5,,5,{8}2<7[12:1],B6/E7,2b/5-1[12:1],B2/B1,
5b/3<6[12:1],E7/B7,3b/8-4b[12:1],B4/B3,{4}8b,2h[8:1]/7h[8:1],
{24}1,8,1,8,1,8,1,8,1,8,1,8,{32}1-5-1[6:1],2,3,4,5,6,7,8,{24}A1f,,,,,8h[8:1],
,,,{8}2-7b[12:1]/6-3b[12:1],1/5,6b/2b<5[8:1],{24},,,,,,{12}3-8[12:1],{24}2,7-4[12:1],,6,
{8}3-6[12:1],7-2[12:1],3,7,3>8[12:1],7/4,3,{24}6,,1,
{8}6<1[12:1],2/5,6,{24}3,,1,{8}3,2/5,{12}7,{24}7,5h[12:1],,6,
{8}4,3/5,{12}2/6,{24}1,7,,8,{8}2>5[12:1],6/1,2,{24}2,1,8,
{8}7<4[12:1],3/8,{24}7/4,3,2,1,,,{8}2,3/5,{12}6,{24}6,8h[12:1],,7,
{8}1,1,2b/8b,3/7,{12}6/4,{24}5,B5,,2,{12}B2,{24}7,B7,,4,
{12}B4,{24}6,B6,,3,{12}B3,{24}8,B8,,5,{8}B5,8/1,{12}7,{24}7,3,,3,
{12}6,{24}6,4,,4,,,{12}7,4,6,{24}4,7-2[24:1],,,{4}1h[8:1],
{8}3,4/6,{12}4,{24}5,3,,4,{12}2,{24}8,3-6[24:1],,,{4}5h[8:1],
{8}8x/4x,1/5,{12}2bh[4:1],6bh[6:1],{24},,,1/5,4/8,7/3,6/2,5/1,{8}8/4-8[12:1],{24}5,4,5,
{4}4-1[12:1]*-2[12:1],{24}4b-6[24:1]*-7[24:1],,,,,4b<4[3:2],
E
