&title=Radio Station
&artist=Essbee
&first=0
&des=所以鸽子为什么这么大
&lv_5=14
&inote_5=(178)
{1},,{4},
{4}4h[4:5],2>5[8:5],,
,,,
{4}6h[4:5],7>3[8:5],,
,,,
{4}5,4/6,3>8[8:4]/7<4[8:4],
,,,
{4}1-5[4:1],5,6,
7-4[4:1],4,3,
{8}2b,5,3,3,4<7[8:3],,
1,,3,,5,,
{8}7,4,6,6,5>2[8:3],,
7h[8:4],,,,,,
{8}1,6,2,2,8<4[8:3],,
3,,2,,1,,
{8}2,5,4,6,3,3,
{16}5,6,7,8,2,3,4,5,1,8,7,6,
{16}1b,,3,4,3,,2,,6,,4,,
3b/7b,,1,8,1,,3,7,4,6,2,,
{16}1,7,1,7,2,6,2,6,3,5,3,5,
1b,2,3,4,6,7,8,1,5,4,3,2,
{16}8,,6,5,6,,7,,3,,5,,
6b/2b,3,4,5,8,7,6,5,8,1,2,3,
{16}8,4,8,4,7,3,7,3,6,2,6,2,
5b,6,7,8,5,4,3,2,8,7,6,5,
{16}1,,3,4,3,,2,,6,,4,,
3b/7b,,6,5,6,,4,5,3,6,5,,
{16}4,6,4,6,3,5,3,5,2,4,2,4,
1b,2,3,4,1,8,7,6,4,3,2,1,
{16}7b,8,7,8,6,1,6,1,5,2,5,2,
7b,3,7,3,6,4,6,4,5,3,5,3,
{16}7b,6,5,4,3,2,1,8,7,6,5pp4[16:6],4,
3b,,,,,,,,,,,,
{8}3h[4:6]/5
,,,,,,
,,,,5,,
{8}6h[4:3],,,,,,
,,,,5,,
{8}4h[8:3]/6h[8:3],,,,,,
3/5,,,3,5,7,
{8}5h[4:3],,,6,,,
4h[4:3],,,,1,,
{8}3<6[4:2],,,,,,
7h[4:3],,,,8,,
{8}2>6[4:2],,,,,,
8h[4:3],,,,7,,
{8}1>7[4:5],,,,,,
,,,,,,
{8}1h[4:3],,,,,,
8,,2/7,,3/6,,
{8}4b,7,3,5,2-7[8:1],4,
2/6,,5h[8:2],,3h[8:2],,
{8}8,2,5,3,7-3[8:1],5,
7/3,,1h[8:2],,4h[8:2],,
{8}3,8,5,6,1>4[8:1],7,
1/8,,6,4,1<6[8:1],2,
{8}1,,4,5,3,4,
2/6,2,8,8,1,6,
{8}3b>6[16:6],,7,,5-1[8:1],,
4h[4:1],,,,2/8,,
{8}6b<3[16:6],,2,,4-8[8:1],,
5,,6,,7/3,,
{8}1b/4<7[16:3],,2,3,4-1[8:1],,4b/5b,,7,5,6pp2[2:1],,
{32}1b,2b,3b,4b,{16},,,,,,4>5[8:4],,,,
8h[4:2],,,,,,,,,,,,
{8}3b/7b,,4,6,4pp5[8:2]/2,,
1h[8:3],,,,2>6[32:7]/4,,
{8}7,7h[32:12],,8,1w5[32:5],,
1,,3/7,2,4qq5[8:3]/6,,
{8}8h[8:3],,,,6>3[4:1],,
2h[8:3],,,,4,,
{8}3/5,6,,4/7,3,6,
4/5,3,2/4,6,4/8,,
{8}7/2,,5,3,5>2[8:2]/7,,
6h[8:3],,,,5pp4[8:3]/1,,
{24}4,3,2,{8},,1,1h[384:95],,
3>8[4:1],,8<5[4:1],,5>2[4:1],,
{8}3h[8:3],,,,8,,
7/3,,4,6,5/3,2,
{8}4,4/5,,6,7/5,3,
{24}2h[8:4]/6b,5,4>5[24:10],{8},,,,,
{8}4b,,3/4,3,3/5,,
4/7,,5/6,6,6/4,,
{8}1/5,,2/4,2,2/6,2,
1/8,8,3/8,8,5/8,,
{8}7b<4[4:1]/4b,4,3,3,2,2,
1b>4[4:1]/5b,5,6,6,7,7,
{16}4b,8,4,8,3,7,3,7,2,6,2,6,
1b,2,3,4,5/1,6,7,8,1/5,2,3,4,
{4}7h[4:3]/5,,,
4,,,
{4}3h[4:3]/5h[4:3],,,
,{8},4,6,2,
{4}4h[4:3],,,
1h[4:3],,,
{24}4b,5,6,,,,{8},,,,
4b/7b,,8b/1b,,2b/6b,,
{16}3b,4,3,4,2,5,2,5,1,6,1,6,
8,1,2,3,4/1,5,6,7,8/5,1,2,3,
{16}6,4,6,4,7,3,7,3,8,2,8,2,
4,3,4,3,5,2,5,2,6,4,6,4,
{16}8h[4:1],,,,1,,3,,5-1[8:1]/4,,6,,
7-4[8:1]*-3[8:1],,,,7b,,,,2>5[8:1]/6<1[8:1],,1,,
{8}6V48[4:1]/2,,7,6,5>6[16:5],,
5b/3b,,,3,1/5,6,
{16}2,4,3,4,3,,5,,2/6,,3,,
7,5,7,5,6,4,6,4,5-8[8:1],,3,,
{16}2-5[8:1]*-6[8:1],,,,2b,,,,3/7,,3/7,,
2,6,2,6,1,5,1,5,8,4,8,4,
{16}1b,2,3,4,5/1,6,7,8,1/5,2,3,4,
1b,8,7,6,5/2,4,3,2,1/5,8,7,6,
{16}3,5,3,5,4,6,4,6,5,7,5,7,
4,3,2,1,8/4,7,6,5,4/8,3,2,1,
{16}4h[4:1]/8b,,,,2,,5,,4/6-2[8:1],,7,,
8v3[8:1]*-5[8:1],,,,8b,,,,2/6,,2/6,,
{16}4,5,4,5,3,6,3,6,2,7,2,7,
3,5,3,5,2,6,2,6,1,7,1,7,
{16}2b,3,4,5,6/1,7,8,1,2/5,3,4,5,
8b,7,6,5,4/1,3,2,1,8/5,7,6,5,
{16}4/3h[4:1],,2,1,8,7,6,5,4/1b,3,2,1,
8b-4[8:1]/4b,,,,5b>2[8:1]*<8[8:1],,,,5b,,,,
||{16}4h[4:1]/3,,3,2,1,8,7,6,5/8b,4,3,2,
1V74[16:3]/6b,,,,5b>2[8:1]*<8[8:1],,,,5b,,,,
{16}7b/3b,,6,5,6,,7,,4/8,,3,,
2b/5b,,3,4,3b,,6,5,7b,,1,,
{16}2b/6b,,3,,4/8,,6,,1b/5b,,3,,
{12}5b/7b,6,5,4b/6b,5,4,5b/3b,4,3,
{16}2b/6b,,5,4,3,2,1,8,7,6,5,4,
1b,8,7,6,5/2,4,3,2,1/6,8,7,6,
{16}1b/5h[16:3],,2,3,4,5,6,7,8b/4b,,,,
1b/5h[16:3],,8,7,6,5,4,3,2b/6b,,,,
{16}3b,7,4,6,2b,5,3,4,{24}1b,5<4[24:17],1,5,1,5,
{8}1,,,,,,
{4}8b,,,
,,,
{8}2h[4:3]/6h[4:3],,,,,,
,,,,,,
{4}3<6[4:5],,,
,,,
{4}7h[4:3],,,
3h[4:3],,,
{8}5,4,6,5,,,
4,5,3,4,,,
{8}3,3,5,4,,,
6,6,4,5,,4,
{8}5,3,4,5,,,
4,6,5,4,,5,
{8}3,3,5,4,6,6,
{16}4,5,3,6,2,5,3,4,2,5,1,6,
{32}2b,3,4,5<4[32:85],{8},{1},,
