&title=梦的光点
&artist=王心凌
&first=0
&des=GreenOnionia
&lv_5=12+
&inote_5=(125)
{16}
,,,,,,,,
,,,,,,,,
{16}
3h[8:14]/4-2-5-1-6-8[8:12],,,,,,,,
,,,,,,,,
{16}
,,,,,,,,
,,,,,,,,
{16}
6h[8:6]/5-2-6-3-8[8:11],,,,,,,,
,,,,,,,,
{16}
Chf[8:8],,,,,,,,
,,,,,,,,
{16}
1b,,,,18,,2,1,
,1,2,,3h[8:1]/5,,7,,
{16}
8h[8:1]/4,,5,,65,,4,6,
,6,3,,2h[8:1]/4,,5,,
{16}
7h[8:1]/3,,2,,18,,8,1,
,1,7,,6h[8:1]/4,,2,,
{16}
1h[8:1]/5,,4,,34,,5,3,
,3,7,,7xh[16:1],5xh[16:1],6xh[16:1],4,
{16}
5,,5,,62,,5,3,
,3,6,,2h[8:1]/7,,8,,
{16}
6h[8:1]/3,,4,,56,,6,5,
7xh[8:1],,5x,,3xh[8:1],,5xh[8:1],,
{16}
4,,4,,45,,6,5,
,5,7,,4h[8:1]/6,,5,,
{16}
3/7b,,2,,63,,5,4,
5,4,5,,3bx/6bx,,,,
{16}
5,,4<6[8:3],,3,,2,,
,,,,,,,,
{16}
4,,3<6[8:3],,2,,,,
,,,,,,,,
{16}
5,,4<6[8:3],,3,,2,,
,,,,,,,,
{16}
4pp4pp5[8:6],,3,,2,,2h[8:3],,
,,,,,,,,
{16}
2,,3,,4<7[8:3],,5>2[8:2],,
,,,,,,,,
{16}
2,,3,,4-1[8:2],,1h[8:1],,
,,,,,,,,
{16}
6pp3[8:5]`5p3[8:5],,,,,,,,
,,,,,,,,
{16}
2s6b[8:4],,,,,,,,
7h[16:7],,,,,,,
{32}
E5,E4,
{16}
E3,,,,4h[8:3]/6,,,,
,,5,,43,,2,,
{16}
2>5[8:1]/5-2[8:1],,,,,,,,
7xh[16:3],,,3xh[16:3],,,,
{32}
E5,E6,
{16}
E7,,,,5h[8:3]/3,,,,
,,4,,56,,7,,
{16}
8<5[8:1]/5>2[8:1],,85,,,,,,
1xh[16:3],,,6xh[16:3],,,,
{32}
E3,E4,
{16}
E5,,,,4h[8:3]/6,,,,
,,5,,42,,1,,
{16}
1-5[8:1]/4-8[8:1],,,,,,,,
7h[8:2]/2-6[8:1],,,,,,,
{32}
E5,E4,
{16}
E3,,,,6h[8:3]/5,,,,
,,4,,2/5h[8:1],,1>8b[8:2],
{32}
B6/B2,B3/B7,
{16}
B4/B8,,,,,,,,
3/7,,2/6,,1>4[8:1]/5<8[8:1],,8/4,,
{16}
1bx/5bx-2-6-1-7-3[8:4],,,,,,,,
,,,,E6/E5/A6/A5f/A4/D6/D5,,,,
{16}
1bx/8bxV64-2[8:3],,3bx-5-1b[8:2]/7bx,,,,,,
,,,,E8/E7/A8f/A7/A6/D8/D7,,,,
{16}
4bxpp5[16:3]*qq3[16:3],,,,4x>6[16:5],,,,
,,,,,,,,
{16}
1bxw5[8:1],,,,1bx,,,,
6bx/4bx,,7bx/3bx,,1bx<6[8:1]*>4[8:1],,3bx/7bx,,
{16}
1bx-3-8-4-7-5[8:5],,,,,,,,
,,,,,,,,
{16}
7h[8:2],,,,5h[8:1],,6,4,
5,3,4,,25,,7<4[8:1],,
{16}
1,,2,,3,,3,4,
2,,5,4,6,4,5,,
{16}
3,,2h[8:1]/4h[8:1],,,7h[8:1]/5h[8:1],,,
1b/8b,,,,
{24}
2x,3x,4x,7x,6x,5x,
{16}
2b-5[8:1]/4bx,,,,2/6,,7,7,
5<8[8:1],6,4,,5/3qq4[16:5],,E2f/B2,,
{16}
,,,,5x,,
{32}
E6,E7,E8,E1,
{16}
,,5,,73,,45,,
{16}
6>3[16:2],,3,,6/2,,1,1h[16:3],
,,3,,24,,63,,
{16}
4>1[8:1],,5<8[8:1],,4,,5,,
{24}
3x,4x,5x,6x,7x,8x,
{16}
1x/5x,,,,
{16}
7b<4[8:1]/2b,,1,,7/3,,2,2,
4>1[8:1],3,5,,4/6V47[16:3],,6,,
{16}
1bx,,,,3x,,
{32}
E3,E2,E1,E8,
{16}
,,4,,62,,54,,
{16}
4,,7h[8:2],,2,,1,6,
,,5h[8:2]/2,,3,,4,6bpp2[8:2],
{16}
,,4,,4,,4,,
{32}
E5,E6,E7,E8,
E1,E2,E3,E4,
E5f,,,,
,,,,
{16}
7bx-4[8:1],,,,7/3,,2,2,
4>1[8:1],3,5,,4/6pp5[16:5],,E8f/B7,,
{16}
,,,,4x,,
{32}
E4,E3,E2,E1,
{16}
,,4,,62,,45,,
{16}
3-6[16:2],,6,,3/7,,8,8h[16:3],
,,6,,75,,36,,
{16}
5<8[8:1],,4>1[8:1],,5,,4,,
{24}
6x,5x,4x,3x,2x,1x,
{16}
8x/4x,,,,
{16}
2b>6[16:3],,,,2/7,,8,,
1b>6[16:3],,,,1/6,,7,,
{16}
8b>6b[16:3],,,,8b/6b,,
{24}
7x,8x,1x,
{16}
2x,,Cf,,,,,,
{16}
1/8,,2h[8:2],,7,,8,3,
,,7/4h[8:2],,6,,5,3,
{16}
6b,,45,,3,6,1,8,
4,5,2,7,
{32}
1x,2x,3x,4x,5x,6x,7x,8x,
{16}
1xp3[8:4]/5xp7[8:4],,B2/B6/A2/A6/Cf,,,,,,
,,,,,,,,
{16}
8h[8:1]/4,,5,,65,,4,6,
,6,3,,2h[8:1]/4,,5,,
{16}
7h[8:1]/3,,2,,18,,8,1,
,1,7,,6h[8:1]/4,,2,,
{16}
1h[8:1]/5,,4,,43,,5,4,
,4,7,,7,5,6,4,
{16}
8b,,2,,81,,2,1,
3,1,2,,3h[8:1]/5,,7,,
{16}
8h[8:1]/4b,,5,,65,,4,6,
5,7,3,,2h[8:1]/4,,5,,
{16}
7h[8:1]/3b,,2,,18,,8,2,
6,4,7,,6h[8:1]/4,,2,,
{16}
1b>8[8:8]/Ch[8:10],,,,,,,,
,,,,,,,,
{16}
,,,,,,,,
1b,,4b-6[12:1]`5b-1[8:1],,3b/7b,,5b`C`B1`A1f,,
{16}
,,,,,,,,
,,,,,,,,
{16}
,,,,,,,,
,,,,,,,,
{16}
,,,,,,,,
,,,,,,,,
E
