&title=Turii ~Panta rhei~
&artist=Zektbach
&first=-1.13
&des=Zhong
&des_5=Zhong
&lv_5=14
&inote_5=(148){4},,,,{8}5b/4b,
4bqq3-7p1b[2:3]/5bpp6-2q8b[2:3],{4},,,,,,,{8}E8,
B2,B6,E4,E6,B3,B7,E2,
E1,E2,E3,E4,E5,E6,E7,E8,
{16}1/6h[8:1],2,3,4,5x/6h[8:1],4,3,2,{4}8h[8:1]/1-5[8:1],1/8h[8:1],
{16}8/3h[8:1],7,6,5,4x/3h[8:1],5,6,7,{4}1h[8:1]/8-4[8:1],8/1h[8:1],
{16}3/7h[8:1],4,5,6,7,8/5h[8:1],1,2,{4}7h[8:1]/3-7[8:1],3/7h[8:1],
{16}6/2h[8:1],5,4,3,2,1/4h[8:1],8,7,{4}2h[8:1]/6-2[8:1],6/2h[8:1],
{16}4h[8:1]/5-1[8:1],6,7,8,{4}1bxh[8:1],{16}8h[8:1]/1-5[8:1],2,3,4,{4}5bxh[8:1],
{16}5h[8:1]/4-8[8:1],3,2,1,{4}8bxh[8:1],{16}1h[8:1]/8-4[8:1],7,6,5,{4}4bxh[8:1],
6h[8:1]/2-6[8:1],{16}2/6h[8:1],{8},{16}7,{8}5-2[8:1]/8v5[8:1],3,{4}8/5,
3h[8:1]/7-3[8:1],{16}7/3h[8:1],{8},{16}2,{8}4-7[8:1]/1v4[8:1],6,{4}1/4,
{1}4h[2:1]/7>4[4:1],
8h[2:1]/3<8[4:1],
2pp5[8:5]/8qq5[8:5],
{4}3h[8:5],{16}E6,B5,{8}B4,{4}4x-1[8:1],4x,
{1}5h[2:1]/2<5[4:1],
1h[2:1]/6>1[4:1],
7qq4[8:5]/1pp4[8:5],
{4}6h[8:5],{16}E4,B4,{8}B5,{4}5x-8[8:1],5x,
{16}7,1,7,1,7,5,7,5,6,4,5,3,4,2,5,3,
6,4,6,4,5,3,5,3,5-1[8:1],2,3,4,{4}5x/6b,
{16}2,8,2,8,2,4,2,4,3,5,4,6,5,7,4,6,
3,5,3,5,4,6,4,6,4-8[8:1],7,6,5,{4}4x/3b,
{8}1h[8:1]/7<4[8:1],8,{4}7/3h[8:1],{16}2h[8:1]/8-4[8:1],7,{8}6,{4}8/2h[8:1],
{8}8h[8:1]/2>5[8:1],1,{4}2/6h[8:1],{16}7h[8:1]/1-5[8:1],2,{8}3,{4}1/8,
{8}6<1[8:1],7,3v8[8:1],2,7-4[8:1],6,1-5[8:1],2,
{16}8>3[8:1],7,{8}6,{4}8,{16}1<6[8:1],2,{8}3,{4}1,
3<8[4:1],8>5[4:1],{2}5q4[4:1],
{4}8-3[8:1]*-5[8:1],8,4-7[8:1]*-1[8:1],4,
{1}8qq5[8:5]*pp3[8:5],
{8}2/4,3,7/5,6,{16}4,3,2,1,8/4,5,6,7,
{8}8/5qq3[8:1],6-8[8:1],5,6,{16}2,1,8,7,1,8,7,6,
{8}1pp3[8:1],8-6[8:1],1,8,{16}4,5,6,7,5,6,7,8,
{8}1v6[8:1],1,2-5[8:1],2,{16}1,8,7,6,5/1,2,3,4,
{8}5v2[8:1],5,6-1[8:1],6,{16}5,4,3,2,1/5,6,7,8,
1-6[8:1]*-5[8:1],2,3,4,{4}1,{16}5-1[8:1],4,3,2,{4}1bxh[8:1],
{16}8-3[8:1]*-4[8:1],7,6,5,{4}8,{16}4-8[8:1],3,2,1,{4}8bxh[8:1],
{1}6qq3[8:5]/2qq7[8:5],
{8}2/6,2/6,1/5,5/1,8/4,8/4,{32}8b/4b,1/5,2/6,3/7,{8}4/8,
{16}5,6,5,7,5,8,4,7,4,6,4,5,4,7,4,5,
4,6,5,6,3,6,5,6,3,5,4,5,2,5,4,5,
3-5[8:1],7,6,5,3-1[8:1],8,7,6,3,8,8,6,6,4,4,2,
2,1,2,1,2,8,3,8,3,7,4,6,5,7/4,{8}7/4,
{16}4,3,4,2,4,1,5,2,5,3,5,4,5,2,5,4,
5,3,4,3,6,3,4,3,6,4,5,4,7,4,5,4,
6-4[8:1],2,3,4,6-8[8:1],1,2,3,6,1,1,3,3,5,5,7,
7,8,7,8,7,1,6,1,6,2,5,3,4,2/5,{8}2h[16:1]/5h[16:1],
{16}1,6,8,7,1,6,2,5,3,4,2,5,1,6,8,7,
1,2,3,4,1/5,8,7,6,{32}5/1w5[8:1],2,3,4,5,6,7,8,{4}1,
{16}8,3,1,2,8,3,7,4,6,5,7,4,8,3,1,2,
8,7,6,5,8/4,1,2,3,{32}4/8w4[8:1],7,6,5,4,3,2,1,{4}8,
{24}1,2,3/7,6,5/2,3,4/8,7,6/1,2,3/7,6,{4}5h[4:1]/1-3[8:1],1-5[8:1],
1>6[4:1],6<3[4:1],3q7[4:1],7-1-5[4:1],
5>1[4:1],1<5[4:1],5>1[4:1],1-7-5[4:1],
5qq8[8:5],8h[4:1],{2},{24}8,
7,6/2,3,4/7,6,5/1,2,3/8,7,6/2,3,{4}4h[4:1]/8-6[8:1],8-4[8:1],
8<3[4:1],3>6[4:1],6p2[4:1],2-8-4[4:1],
4<8[4:1],8>4[4:1],4<8[4:1],8-2-4[4:1],
4pp1[8:5],1h[4:1],{2},{8}2>5[8:1],
5p1[8:1],{16}2/8,7,{8}6,{16}8,7,6,5,{4}4/8,
{8}3>8[8:1],3,7-4[8:1],7,2-6[8:1],2,{4}8h[8:1],
{8}7<4[8:1],4q8[8:1],{16}7/1,2,{8}3,{16}1,2,3,4,{4}5/1,
{8}6<1[8:1],6,2-5[8:1],2,7-3[8:1],7,{4}1h[8:1],
{8}2>5[8:1],{16}8,7,{4}2/6-8[8:1],{16}6/3v8[8:1],2,{8}1,{4}3/8,
{8}7<4[8:1],{16}1,2,{4}7/3-1[8:1],{16}3/6v1[8:1],7,{8}8,{4}6/1,
8-5[8:1]/1-4[8:1],8b-6[8:1]/1b-3[8:1],1-5[8:1]/8-4[8:1],8b/1b,
{24}8/1,7/2,6/3,4-8-3[8:3]/5-1-6[8:3],,,,,,{8}5b/4b,{2},{32}1/A5,
D6,A6,D7,1/A7,D8,A8,D1,{8}2/1bxh[8:13],2,,3<6[8:1],,3qq6[8:3],
,3,{2},{8}4,4,
{32}3/A1,D1,A8,D8,A7,D7,A6,D6,{8}3/5bxh[2:3],3,,2,,1pp5[8:5],
{1},{32}8/A4,
D4,A3,D3,8/A2,D2,A1,D1,{8}7/8bxh[8:13],7,,6>3[8:1],,6pp3[8:3],
,6,{2},{8}5,5,
{32}6/A8,D1,A1,D2,A2,D3,A3,D4,{8}6/4bxh[2:3],6,,7,,8qq4[8:5],
{1},2bh[6:7]/7bh[6:7],
E
