&title=贄-nie-
&artist=ユリイ・カノン feat.吉乃
&first=1.6
&des=AnD
&lv_5=13
&inote_5=(123)
{2}2h[4:6]/4h[16:3],5h[16:3],
{2}6h[16:3],7^5[8:1],
{2}3h[1:1]/8h[16:3],
{2}7h[16:3],6>8[4:2],,
{1}
{2}1-4[8:1],8-5b[8:1],
{16}4/6,4/6,,3/5,3/5,,2/4,2/4,{16}E5h[16:1],,,Ch[16:1],,,E1h[16:1],,
{16}2b/6b,,5,5h[8:1],,4,5,3,3h[8:1],,8,8h[8:1],,1,2,3,
{16},,2,2h[16:3],,8,8,7,2/6,,3,3/5,,2,2/4,,
{16}7/3,,4,4h[8:1],,5,4,6,6h[8:1],,1,1h[8:1],,8,7,6,
{16},,7,7h[16:3],,1,1,2,7/3,,,2/6,,,4/5,,
{8}3^1q5[8:3],,,5pp7[16:3],,,,,
{8}2^8q4[8:3],,,4pp6[16:3],,,,,
{8}7^1p5[8:3],,,5^2[16:3],,,,,
{16}3^8[16:3],,,8q6[4:1],,,7,,7h[4:1],,,,,,,,
{8}6V84[8:3],,,4^1[16:3]*pp5[16:3],,,,,
{8}7V15[8:3],,,5^2[16:3]*pp6[16:3],,,,,
{8}2V84[8:3],,,4<7[16:3]*V68[16:4],,,,,
{16}6-1[16:3],,,1-5[4:1],,,5x,4x,3xh,,,2xh,,,1xh,,
{16}2/4-1[8:1],,5,,4/6,,7,7,8^3[8:1],,7,,8,,6,,
{16}7/5-8[8:1],,4,,5/3,,2,2,1^6[8:1],,2,,1,,3,,
{8}4-8[8:1]/5,3,4/5-1[8:1],6,{16}2,,3,3h[16:3],,,4,,
{16}1/7b,,,2/8b,,,3/1b,,4bw8[8:1],,,,,,,,
{16}2/6,,1>5qq4[8:3],5,,5qq4b[16:3],1,,6h[8:1],,,8h[8:1],,,7/3,,
{16}4/5,,6qq7[8:3],4,,4,6,,1^3b[8:1],,,,1,,,,
{16}7/8,,1/6,1h[8:1]/6h[8:1],,,7,,1/2,,3/7,3h[8:1]/7h[8:1],,,1,,
{16}2b/8b,,3/5,4/6,,3/5,4/6,,2b,,4b,,6b,,8b,,
{16}3b/7b,,2,1,2,1,3,,1/5,,3,4,2,4,3,,
{16}2/6,,7,8,7,8,6,,4/8,,6,5,7,5,6,,
{16}2b/5,3,4,2/5b,,8,8,,4b/7,6,5,4/7b,,1,1,,
{16}2/6,3,4,5,6,7,8,1,2hbx[4:1]/6hbx[4:1],,,,,,,,
{8}4h[4:1]/8h[8:3],,,4,7h[4:1]/3h[4:1],,,7/3,
{16}8,7,1,6,2^4z8^6[8:3],4z8b[16:4],3,5,,,,,,,,,
{16}5h[16:3],,,3h[16:3],,,4h[16:2],,1,,2^8p6[16:6],2,,,2x/3xp6b[8:1],,
{16},,,,,,4p8[16:3],,5,,6,,7x>3[16:4],6x,5x,4x,
{16}3xqq5[16:6]/7x,,,5,,,6,,8<3pp5[16:7],,,,,,1,,
{16}2h[16:3],,,,,,3,,7/4,,5,6h[8:1],,1,2,3,
{16}4h[16:3],,,6h[16:3],,,5h[16:2],,8,,7^1q3[16:6],7,,,7x/6xq3b[8:1],,
{16},,,,,,5q1[16:3],,4,,3,,2x<6[16:4],3x,4x,5x,
{16}6xpp5[16:6]/2x,,,4,,,3,,1-4[16:2],,,,,,5,,
{16}3,,4/6,4/6,,3/5,3/5,,{32}7,6,5h[16:5],,,,2,3,{8}4h[16:2],,
{16}2b/6b,,5,5h[8:1],,4,5,3,3h[8:1]/4b,,8,8h[8:1],,1,2,3,
{16}4/5b,,2,2h[16:3],,8,8,7,2b/6,,3,3/5,,2,2/4,,
{16}7b/3b,,4,4h[8:1],,5,4,6,6h[8:1]/5b,,1,1h[8:1],,8,7,6,4b/5,
{16},7,7h[16:3],,1,1,2,7/3h[16:3],,,2h[16:5],,,6h[16:2],,
{64},1xb/5xb,4xb/8xb,3xb/7xb,
