&title=Petite Queen
&artist=濵田有共; ゆきまめ
&first=0
&des=Yuzukeai
&lv_5=12
&lv_6=13
&lv_7=real
&inote_5=(150)
{8},,,,,,,,,
3h[4:1]/4,,,4/5,,,5/6h[4:1],,,,35,,46,,,45,,6h[8:1]/4,,5/3h[8:1],,,45,,
6h[4:1]/5,,,5/4,,,43,,45,,56,,6>3[8:3]/7>2[8:3],,
(125),,,,
(100)14,58,67,,,,
{48}76,85,14,2bz6[4:3]/3bs7[4:3],,,,,,,,,,
(150){1},
{16},,,,,,,,27,,,,34,,,,2h[8:1]/5h[8:1],,,,3h[8:1]/4h[8:1],,,,2h[8:1]/5h[8:1],,,,3h[8:1]/4h[8:1],,,,7h[8:1]/4h[8:1],,,,6h[8:1]/5h[8:1],,,,7h[8:1]/4h[8:1],,,,6h[8:1]/5h[8:1],,,,1h[8:1]/5h[8:1],,,,3h[8:1]/4h[8:1],,,,1h[8:1]/5h[8:1],,,,3h[8:1]/4h[8:1],,,,4-1[8:1]/8-5[8:1],,,,4V68[4:1]/8V24[4:1],,,,,,,,,,,,
6h[8:1]/3h[8:1],,,,3h[8:1]/43h[8:1],,,,3h[8:1]/6h[8:1],,,,3h[8:1]/4h[8:1],,,,3h[8:1]/6h[8:1],,,,2h[8:1]/4h[8:1],,,,3h[8:1]/6h[8:1],,,,2h[8:1]/4h[8:1],,,,5h[8:1]/1h[8:1],,,,7h[8:1]/8h[8:1],,,,5h[8:1]/1h[8:1],,,,3v2[8:1]/7v8[8:1],,2V41[4:1]/8V61[4:1],,37,,,,,,,,4h[4:1]/6h[4:1],,,,,,,,
2/6p3[2:3]*pp1[2:3],,,,,,,,,,,,,,,,,,,,,,,,,,,,,,,,
8/4qq8[2:3]*qq1[2:3],,,,,,,,,,,,,,,,,,,,,,,,,,,,,,,,
1/5p2[2:3]*pp8[2:3],,,,,,,,,,,,,,,,,,,,,,,,,,,,,,,,
3-8[8:1]/7-4[8:1],,,,,,,,6-1[8:1]/2-5[8:1],,,,,,,,
(140)2h[8:1]/8h[8:1],,,,
(130)1h[8:1]/7h[8:1],,,,
(110)6h[8:1]/8h[8:1],,,,
(75)5h[8:1]/7h[8:1],,,,
(150)4/6h[8:1],,,,5h[8:1]/7,,,,4/6h[8:1],,,,5h[8:1]/7,,,,
5/3h[8:1],,,,4h[8:1]/2,,,,5/3h[8:1],,,,4h[8:1]/1,,,,
{12}28,,37,37,,46,46,,17,17,,26,26,,35,53,,46,46,,12,12,,53,
{16}5/3h[8:1],,,,4h[8:1]/2,,,,5/3h[8:1],,,,4h[8:1]/2,,,,
4/6h[8:1],,,,5h[8:1]/7,,,,4/6h[8:1],,,,5h[8:1]/7,,,,
{12}71,,35,35,,28,28,,46,46,,73,73,,28,28,,17,17,,65,6-8[12:1]/5-8[12:1],,,,,34,3-1[12:1]/4-1[12:1],,,,,65,6-1[12:1]/5-8[12:1],,,,,34,3-8[12:1]/4-1[12:1],,,,,45,4-8[12:1]/5-1[12:1],,,45,,24,3-8[12:1]/4-8[12:1],,,34,,75,6-1[12:1]/5-1[12:1],,,
(140)65,,24,
(130)3h[12:2]/4,,,
(110)31,28,17,
(75)58,16,27,
(150)38,,,34,,,38,,,34,,,
61,,,65,,,61,,,65,,,
23,,,25,,,12,,,25,,,
{16}78,,,65,6h[8:1]/5h[8:1],,,,21,,,,34,,,,
78,,,,64,,,,78,,,,64,,,,
21,,,,35,,,,21,,,,35,,,,
18,,,,5h[8:1]/6h[8:1],,,,47,,,,3h[8:1]/4h[8:1],,,,14,,83,,72,,,,1-5[8:1]/8-4[8:1],,,,,,,,7h[8:1]/2h[8:1],,,,5h[8:1]/6h[8:1],,,,7h[8:1]/2h[8:1],,,,4h[8:1]/3h[8:1],,,,1v3[8:1]/8-4[8:1],,,,18,,,,1-5[8:1]/8v6[8:1],,,,18,,,,2h[8:1]/7h[8:1],,,,3h[8:1]/4h[8:1],,,,7h[8:1]/2h[8:1],,,,5h[8:1]/6h[8:1],,,,78,,65,54,4h[8:1]/3h[8:1],,,,12,,34,45,5h[8:1]/6h[8:1],,,,2h[8:1]/1h[8:1],,,,5h[8:1]/6h[8:1],,,,2h[8:1]/1h[8:1],,,,5h[8:1]/6h[8:1],,,,
(152)2-4[12:1]/1q5[8:1],,,,12,,,,7-5[12:1]/8p4[8:1],,,,87,,,,
(154)7h[8:1]/8h[8:1],,,,3h[8:1]/4h[8:1],,,,7h[8:1]/8h[8:1],,,,3h[8:1]/4h[8:1],,,,
(156)6h[8:1]/7h[8:1],,,,2h[8:1]/3h[8:1],,,,6h[8:1]/7h[8:1],,,,2h[8:1]/3h[8:1],,,,
(158)7h[8:1]/6h[8:1],,,,5h[8:1]/8h[8:1],,,,67,,67,,5h[8:1]/8h[8:1],,,,
6-3[8:1]/7-2[8:1],,,,67,,,,6-3[8:1]/7-2[8:1],,,,67,,,,
2h[8:1]/3h[8:1],,,,1h[8:1]/4h[8:1],,,,32,,32,,1h[8:1]/4h[8:1],,,,
25,,25,36,4h[8:1]/7h[8:1],,,,74,,47,36,2h[8:1]/5h[8:1],,,,
2h[8:1]/1h[8:1],,,,8h[8:1]/3h[8:1],,,,12,,12,,8h[8:1]/3h[8:1],,,,
3-8[8:1]/5-2[8:1],,,,35,,,,7-4[8:1]/1-6[8:1],,,,71,,,,78,,16,25,3h[8:1]/4h[8:1],,,,21,,38,47,5h[8:1]/6h[8:1],,,,15,,26,,37,,48,,5-2[8:1]/1-6[8:1],,,,15,,,,
2h[8:1]/7h[8:1],,,,3h[8:1]/4h[8:1],,,,28,,17,,6h[8:1]/5h[8:1],,,,2h[8:1]/7h[8:1],,,,3h[8:1]/4h[8:1],,,,28,,17,,6h[8:1]/5h[8:1],,,,
7h[8:1]/2h[8:1],,,,6h[8:1]/5h[8:1],,,,71,,82,,3h[8:1]/4h[8:1],,,,3p3[4:1]/4pp4[4:1],,,,3qq8[8:3]/4q7[8:3],,,,,,,,,,,,
3h[8:1]/4h[8:1],,,,6h[8:1]/5h[8:1],,,,71,,82,,3h[8:1]/4h[8:1],,,,7h[8:1]/2h[8:1],,,,6h[8:1]/5h[8:1],,,,71,,82,,3h[8:1]/5h[8:1],,,,28,,28,37,4h[8:1]/6h[8:1],,,,17,,17,26,3h[8:1]/5h[8:1],,,,48,,37,,26,,15,,4-7[8:1]/8-3[8:1],,,,48,,,,
28,,28,37,4h[8:1]/6h[8:1],,,,17,,17,26,3h[8:1]/5h[8:1],,,,48,,37,,26,,15,,4<7[8:1]/8>3[8:1],,,,48,,,,28,,28,37,4h[8:1]/6h[8:1],,,,17,,17,26,3h[8:1]/5h[8:1],,,,37,,26,,15,,84,,37,,
{24}48,15,26,3-6[12:1]/7-2[12:1],48,,,,,
(155){12},,48,8-5[12:1]/4-1[12:1],,,48,,37,3-8[12:1]/7-4[12:1],,,
(150)37,,26,2-7[12:1]/6-3[12:1],,,26,,15,1-6[12:1]/5-2[12:1],,,15,,48,8-4[12:1]/4-7[12:1],,,48,,25,2-5[12:1]/5-1[12:1],,,
(140)25,,37,
(130)6h[12:2]/4,,,
(110)82,13,24,
(85)64,35,24,
(150){16},,,,,,,,,,,,,,
{24}23,14,58,6bV84[4:7]/7bV51[4:7]
,
&inote_6=(150)
{8},,,,,,,,,
3h[4:1]/4,,5,4,6,,5/6h[4:1],,,,4,5,3h[8:2],,,7,,64,5,4,35,,5,4,
6h[4:1]/5,,,5/4,,,43,,45,,56,,67,,
(125)8,5,1,4,
(100)23,34,45,,,,
{48}6,5,4,3b,,,,,,,,,,
(150){16},,3,,
{16}4,3,4,3,
{20}4,3,4,3,4,3,4,3,4,3,4,3,4,3,4,
{24}3,4,3,4,3,,56,,,,,,
{16}24,,,,
34,,5,,34,,5,,2h[8:1]/4,,6,,2h[8:1]/4,,6,,
34,,5,,34,,5,,2h[8:1]/4,,6,,2h[8:1]/4,,6,,
65,,4,,65,,4,,7h[8:1]/5,,3,,7h[8:1]/5,4,3,2,
4-7[8:1]/1-4[8:1],,,,1/4V68[8:3]*V28[8:3],,,,,,,,,,,,
65,,4,,65,,4,,7h[8:1]/5,,3,,7h[8:1]/5,,3,,
65,,4,,65,,4,,7h[8:1]/5,,3,,7h[8:1]/5,,3,,
3h[8:1]/4h[8:1],,,,5,,2,,3h[8:1]/4h[8:1],,,,2,,5,,
8-4[8:1]/4-8[8:1],,,,48,,,,1,2,3,4,5,6,7,,
{32}6h[8:2],5,4h[32:6],,,,,,,,,,,,,,3h[4:1],4,5h[32:6],,,,,,,,,,5,,4,,6h[4:1],,,,,,,,,,,,,,,,62,,,,2,,,,73,,,,3,,,,
{32}3h[4:1],4,5h[32:6],,,,,,,,,,,,,,6h[4:1],5,4h[32:6],,,,,,,,,,,,,,3h[8:1],,,,,,,,4,,3,,4,,3,,4,,5,,6,,,,4h[8:1],,,,3h[8:1],,,,
{16}2,3,4,5,3,4,5,6,1,2,3,4,7,8,1,2,4,3,2,1,5,4,3,2,7,6,5,4,1,8,7,6,
{16}3-8[8:1]/7-4[8:1],,,,,,,,62,,3,,48,,1,,
(140)2h[8:1]/8h[8:1],,,,
(130)3h[8:1]/7h[8:1],,,,
(110)4h[8:1]/6h[8:1],,,,
(75)5h[8:1],,,,
(150)46,,3,,46,,3,,7h[8:1]/5,,3,,7h[8:1]/5,,3,,
53,,6,,53,,6,,2h[8:1]/4,,6,,2h[8:1]/4,,6,,
{12}2,3,4,53,4,5,64,5,6,57,,18,
{12}7,6,5,46,5,4,35,4,3,42,,53,
{16}53,,6,,53,,6,,2h[8:1]/4,,6,,2h[8:1]/4,,6,,
53,,6,,53,,6,,3h[8:1]/4,,6,,1h[8:1]/4,,6,,
{12}1,2,3,42,3,4,53,4,5,46,,12,8,7,6,57,6,5,46,5,4,35,,2,
5,4,6,5,7,4,5,3,6,5,8,3,
5,2,7,5,1,2,5,1,7,5,1,1,
3,5,4,6,3,4,2,5,4,7,2,4,
(140)35,6,4,
(130)57,6,1,
(110)25,3,7,
(75)85,7,1,
(150)
{8}6b,,4h[8:1],,4h[8:1],,6h[8:1],,
{8}5h[8:1],,5h[8:1],,5h[8:1],,4h[8:1],,
{8}8h[8:1],,8h[8:1],,7h[8:1],,7h[8:1],,
{16}6h[8:1],,,,6h[8:1],,,,6h[8:1],,,,7h[8:1],,,,
6h[8:1],,2,,4h[8:1],,2,,5h[8:1],,2,,6h[8:1],,2,,
6h[8:1],,2,,5h[8:1],,2,,5h[8:1],,2,,6h[8:1],,2,,
7h[8:1]/3h[8:1],,,,3h[8:1]/7h[8:1],,,,4h[8:1]/6h[8:1],,,,4h[8:1]/6h[8:1],,,,5h[8:1]/7h[8:1],,,,2h[8:1]/4h[8:1],,,,2b/7b,,,,,,,,
3>7[4:1]/7p3[8:1],,,,73,,,,5-1[8:1],,6,,5/7-4[8:1],,,,7,,2-5[8:1],,,,25,,6pp4[8:3],,7,,6,,,,
3<6[8:1],,2,,13,,,,7>2[8:1],,6,,57,,,,5,4,3,2,7,6,5,4,8,7,6,5,4h[8:1]/8h[8:1],,,,
6V82[4:1]/2-5[8:1],,,,26,,,,4-1[8:1],,3,,4/2>5[8:1],,,,
(152)2,,7-4[8:1],,,,74,,3qq5[8:3],,2,,3,,,,
(154)6,7,8,1,7,8,1,2,8,7,6,5,7,6,5,4,
(156)6,2,5,1,6,2,7,3,6,5,8,4,5,2,7,8,
(158)6-1[8:1],,,,16,,,,4-1[8:1],,4,,41,,8,,
7,,6,5,6,,28,,3,,4,5,4,,28,,
3-8[8:1],,,,83,,,,5-8[8:1],,5,,58,,1,,
2,3,4,5,8,7,6,5,1,2,3,4,5/8<5[8:1],,,,
8/2-6[8:1],,,,2/4<7[8:1],,,,84,,1,,
{24}2,8,2,8,2,,
{16}1,,3,4,3,,71,,28,,6,5,6,,28,,
7,6,5,4,1,2,3,4,8,7,6,5,4,3,2,1,84,,37,,26,,15,,48,,
7,6,7,6,7,6,
{16}
7,,,,1,2,3,4,5,,8,1,2h[8:1]/4h[8:1],,,,41,,,,8,7,6,5,4,,1,8,7h[8:1]/4h[8:1],,,,
71,,3,4,3,,28,,71,,3,4,3,,28,,17,6,5,4,2,3,4,56,7,8,1,2,3,,,,
31,,8,7,6h[8:1]/4h[8:1],,,,25,,1,8,7h[8:1]/5h[8:1],,,,86,,1,2,3h[8:1]/5h[8:1],,,,74,,8,1,2h[8:1]/5h[8:1],,,,
3,6,4,7,5,6,7,8,15,26,37,48,
51,2,3,4,51,,26,,37,,48,,51,,2,4,2,4,2,,
6,3,5,2,4,3,2,1,84,73,62,51,
48,7,6,5,48,,73,,62,,51,,48,,67,,15,,23,,3,7,3,7,4,5,6,7,84,15,26,37,
48,1,2,3,24,,15,,68,,7h[4:1],,6,,
{32}5,4,3,2,1,8,7,6,5,4,3,2,
(155){12}6,5,7,4,5,3,8,5,6,2,5,4,
(150)36,4,2,5,4,6,1,4,3,7,4,5,36,2,5,36,7,5,64,2,5,34,7,4,
(140)56,,37,
(130)6h[12:2]/4b,,,
(110)82,37,4h[12:1]/6,
(85)1,28,3/7h[16:9],
(150){16},,,,,,,,,,,,,,
{24}3,4v5[4:9]*v5[4:9],5,6b
,
&inote_7=(150)
{8},,,,,,,,,
3h[4:1]/4,,5,4,6,,5/6h[4:1],,,,4,5,3h[8:2],,,7,,64,5,4,35,,5,4,
6h[4:1]/5,,,5/4,,,43,,45,,56,,67,,
(125)8,5,1,4,
(100)23,34,45,,,,
{48}6,5,4,3,,,,,,,,,,
(150){16},,3,,
{16}4,3,4,3,
{20}4,3,4,3,4,3,4,3,4,3,4,3,4,3,4,
{24}3,4,3,4,3,,56,,,,,,
{16}24,,,,
34,,5,,34,,5,,2h[8:1]/4,,6,,2h[8:1]/4,,6,,
34,,5,,34,,5,,2h[8:1]/4,,6,,2h[8:1]/4,,6,,
65,,4,,65,,4,,7h[8:1]/5,,3,,7h[8:1]/5,4,3,2,
4-7[8:1]/1-4[8:1],,,,1/4V68[8:3]*V28[8:3],,,,,,,,,,,,
65,,4,,65,,4,,7h[8:1]/5,,3,,7h[8:1]/5,,3,,
65,,4,,65,,4,,7h[8:1]/5,,3,,7h[8:1]/5,,3,,
3h[8:1]/4h[8:1],,,,5,,2,,3h[8:1]/4h[8:1],,,,2,,5,,
8-4[8:1]/4-8[8:1],,,,48,,,,1,2,3,4,5,6,7,,
{32}6h[8:2],5,4h[32:6],,,,,,,,,,,,,,3h[4:1],4,5h[32:6],,,,,,,,,,5,,4,,6h[4:1],,,,,,,,,,,,,,,,62,,,,2,,,,73,,,,3,,,,
{32}3h[4:1],4,5h[32:6],,,,,,,,,,,,,,6h[4:1],5,4h[32:6],,,,,,,,,,,,,,3h[8:1],,,,,,,,4,,3,,4,,3,,4,,5,,6,,,,4h[8:1],,,,3h[8:1],,,,
{16}2,3,4,5,3,4,5,6,1,2,3,4,7,8,1,2,4,3,2,1,5,4,3,2,7,6,5,4,1,8,7,6,
{16}3-8[8:1]/7-4[8:1],,,,,,,,62,,3,,48,,1,,
(140)2h[8:1]/8h[8:1],,,,
(130)3h[8:1]/7h[8:1],,,,
(110)4h[8:1]/6h[8:1],,,,
(75)5h[8:1],,,,
(150)46,,3,,46,,3,,7h[8:1]/5,,3,,7h[8:1]/5,,3,,
53,,6,,53,,6,,2h[8:1]/4,,6,,2h[8:1]/4,,6,,
{12}2,3,4,53,4,5,64,5,6,57,,18,
{12}7,6,5,46,5,4,35,4,3,42,,53,
{16}53,,6,,53,,6,,2h[8:1]/4,,6,,2h[8:1]/4,,6,,
53,,6,,53,,6,,3h[8:1]/4,,6,,1h[8:1]/4,,6,,
{12}1,2,3,42,3,4,53,4,5,46,,12,8,7,6,57,6,5,46,5,4,35,,2,
5,4,6,5,7,4,5,3,6,5,8,3,
5,2,7,5,1,2,5,1,7,5,1,1,
3,5,4,6,3,4,2,5,4,7,2,4,
(140)35,6,4,
(130)57,6,1,
(110)25,3,7,
(75)85,7,1,
(150)
{8}6b,,4h[8:1],,4h[8:1],,6h[8:1],,
{8}5h[8:1],,5h[8:1],,5h[8:1],,4h[8:1],,
{8}8h[8:1],,8h[8:1],,7h[8:1],,7h[8:1],,
{16}6h[8:1],,,,6h[8:1],,,,6h[8:1],,,,7h[8:1],,,,
6h[8:1],,2,,4h[8:1],,2,,5h[8:1],,2,,6h[8:1],,2,,
6h[8:1],,2,,5h[8:1],,2,,5h[8:1],,2,,6h[8:1],,2,,
7h[8:1]/3h[8:1],,,,3h[8:1]/7h[8:1],,,,4h[8:1]/6h[8:1],,,,4h[8:1]/6h[8:1],,,,5h[8:1]/7h[8:1],,,,2h[8:1]/4h[8:1],,,,2b/7b,,,,,,,,
3>7[4:1]/7p3[8:1],,,,73,,,,5-1[8:1],,6,,5/7-4[8:1],,,,7,,2-5[8:1],,,,25,,6pp4[8:3],,7,,6,,,,
3<6[8:1],,2,,13,,,,7>2[8:1],,6,,57,,,,5,4,3,2,7,6,5,4,8,7,6,5,4h[8:1]/8h[8:1],,,,
6V82[4:1]/2-5[8:1],,,,26,,,,4-1[8:1],,3,,4/2>5[8:1],,,,
(152)2,,7-4[8:1],,,,74,,3qq5[8:3],,2,,3,,,,
(154)6,7,8,1,7,8,1,2,8,7,6,5,7,6,5,4,
(156)6,2,5,1,6,2,7,3,6,5,8,4,5,2,7,8,
(158)6-1[8:1],,,,16,,,,4-1[8:1],,4,,41,,8,,
7,,6,5,6,,28,,3,,4,5,4,,28,,
3-8[8:1],,,,83,,,,5-8[8:1],,5,,58,,1,,
2,3,4,5,8,7,6,5,1,2,3,4,5/8<5[8:1],,,,
8/2-6[8:1],,,,2/4<7[8:1],,,,84,,1,,
{24}2,8,2,8,2,,
{16}1,,3,4,3,,71,,28,,6,5,6,,28,,
7,6,5,4,1,2,3,4,8,7,6,5,4,3,2,1,84,,37,,26,,15,,48,,
7,6,7,6,7,6,
{16}
7,,,,1,2,3,4,5,,8,1,2h[8:1]/4h[8:1],,,,41,,,,8,7,6,5,4,,1,8,7h[8:1]/4h[8:1],,,,
71,,3,4,3,,28,,71,,3,4,3,,28,,17,6,5,4,2,3,4,56,7,8,1,2,3,,,,
31,,8,7,6h[8:1]/4h[8:1],,,,25,,1,8,7h[8:1]/5h[8:1],,,,86,,1,2,3h[8:1]/5h[8:1],,,,74,,8,1,2h[8:1]/5h[8:1],,,,
3,6,4,7,5,6,7,8,15,26,37,48,
51,2,3,4,51,,26,,37,,48,,51,,2,3,2,3,2,,
6,3,5,2,4,3,2,1,84,73,62,51,
48,7,6,5,48,,73,,62,,51,,48,,67,,15,,23,,3,7,3,7,4,5,6,7,84,15,26,37,
48,1,2,3,24,,15,,68,,7h[4:1],,6,,
{32}5,4,3,2,1,8,7,6,5,4,3,2,
(155){12}6,5,7,4,5,3,8,5,6,2,5,4,
(150)36,4,2,5,4,6,1,4,3,7,4,5,36,2,5,36,7,5,64,2,5,34,7,4,
(140)56,,37,
(130)6h[12:2]/4b,,,
(110)82,37,4h[12:1]/6,
(85)1,28,3/7h[16:9],
(150){16},,,,,,,,,,,,,,
{24}3,4v5[4:9]*v5[4:9],5,6b
,
