&title=武装乙女
&artist=洛天依Official; Chinozo
&first=0
&des=我向上天祈愿,回应我的是...『Kurage』
&lv_5=13
&inote_5=(168)
{1},
{1},
{2}2h[2:1],4h[2:1],
{2}5h[2:1],7h[2:1],
{2}2h[2:1],5h[2:1],
{4}4q5[2:1],,,8b,
{16}7,,6,,25,,3,,47,,6,5,6,,7,,
{16}28,,3,4,3,,2,,17,,6,,25,,3,,
{16}46,,7,,28,,3,,47,,6,5,6,,7,,
{24}1,,,2,,,7,,,6,,,2,,,2,3,4,5,,,7,,,
{16}6,,5,,47,,6,,52,,3,4,3,,2,,
{16}71,,6,5,6,,7,,82,,3,,74,,6,,
{16}53,,2,,71,,6,,52,,3,4,3,,2,,
{4}1b-5[8:5],,,8,
{4}7/4qq5[8:3],7-5[8:1],7qq8[8:3],2-8[8:1],
{8}2q3[16:5],,2,,5,6,47,,
{4}2/5pp4[8:3],2-4[8:1],2pp1[8:3],7-1[8:1],
{8}7p6[16:5],,7,,4,3,52,,
{4}7/4qq5[8:3],7-5[8:1],7qq8[8:3],2-8[8:1],
{8}2q3[16:5],,2,,5,6,4^1[8:1]/7,,
{8}4/7^4[8:1],,17,,2,2,5,5,
{8}6h[4:1]/3,,4,3,2-5[8:1],7-1[8:1],2,7,
{48}4h[4:3],,,,,,,,,,,,7,6,,,,,,,,,,,8,7,,,,,,,,,,,7,6,,,,,,,,,,,
{8}35,2,18,2-5[8:1]/7-4[8:1],,27,,36,
{8},3,5/2^5[8:1],,6,6,4/7v4[8:1],,
{8}37,2,15,6,3-1[8:1]/7-1[8:1],,,,
{8}37,6,45,3,28,3,45,6,
{16}3b-8[8:1]/7b-4[8:1],,,,3b/7b,,,,15,,26,,37,,6,4,
{48}7h[4:3],,,,,,,,,,,,2,3,,,,,,,,,,,1,2,,,,,,,,,,,2,3,,,,,,,,,,,
{8}64,7,81,7-4[8:1]/2-5[8:1],,72,,63,
{8},6,4/7^4[8:1],,3,3,5,2v5[8:1],
{8},6,7,3,6-8[8:1]/2-8[8:1],,,,
{8}35,2,46,7,34,2,56,7,
{16}4b-1[8:1]/8b-5[8:1],,,,48,,,,26,,73,,48,,7,6,
{2}5/1s5[8:9],7,
{4}2,,6,4,
{8}5,5,3,3,7,7,1,1,
{4}8b<1[2:1],,,7b,
{16}2b/6b,,3,,5,4,6,,7-4[8:1]/5-2[8:1],,8,,7/5>6[4:1],,,,
{4}3qq4[4:1]/5,3b,7p6[4:1],5b/7b,
{16}3,,2,4,,6,5,,17,,2,4,,6,5,,
{4}1bp8[4:1]/7b-5[8:1],1b/7b,4bV61[8:1]*V27[8:1],4b,
{16}2b/6b,,5,,4,5,3,,2-5[8:1]/4-7[8:1],,1,,2/4<3[4:1],,,,
{4}6pp5[4:1]/4,6b,2q3[4:1],4b/2b,
{16}6,,7,5,,3,4,,82,,7,5,,3,4,,
{8}2-5[8:1],6-2[8:1],2,6,4w8[8:1],,4,,
{4}1b^3[8:1],2^4[8:1],3^6[8:1],4^7[8:1],
{4}5^8[8:1],6^1[8:1],7p4[4:1],17,
{16}1,,2,4,3,,6,5,7,,1,8,2,4,3,5,
{8}4p8[8:1],,4/6qq4[8:1],7,6/1w5[8:1],,1,,
{4}1b^3[8:1],2^4[8:1],3^6[8:1],4^7[8:1],
{4}5^8[8:1],6^1[8:1],7p4[4:1],17,
{16}1,,2,4,,6,5,,17,,2,4,,6,5,,
{8}18,27,34,45,5-1[8:1]/6-2[8:1],,5b/6b,,
{8}38,47,56,45,3-8[8:1]/4-7[8:1],,3b/4b,,
{8}16,2,37,6,25,3,46,5,
{4}4bV28[8:1]/3b-1[8:1],3b/4b,2b/7b,43,
{4}5bV71[8:1]/6bv8[8:1],6b/5b,7b/2b,,
{8}3h[4:1]/5h[4:1],,,4h[4:1]/6h[4:1],,,5bpp8[2:5]/7bpp4[2:5],,
{1},
{1},
{1},
E
