&title=朧
&artist=HHHxMMxST
&first=0.36
&des=DX
&wholebpm=149
&des_5=DX
&lv_5=13+
&inote_5=(149)
{16}1,2,3,5,6,7,Ch[8:3],,,,,,E8/B8,,E4/B4,,
A6,A7,A8,A2,A3,A4,1h[8:3],,,,,,5,,7,,
4,3,2,8,7,6,Ch[8:3],,,,,,E6/B6,,E2/B2,,
A7,A6,A5,A3,A2,A1,4h[8:3],,,,,,2,,3,,
{8}4/5>1[16:5],6,7,8,,,7,6,
4/5>1[16:5],6,7,8,,,6,7,
18,27,3p2[16:5]/6q7[16:5],45,,,,,
45,36,2q5[8:3]/7p4[8:3],18,,,,,
{16}2q4[8:3],,7,,6q8[8:3],,5,,,,,,4,,3,,
{16}2q4[8:3],,7,,6q8[8:3],,5,,,,,,4,,3,,
{16}2b,,37,,4qq5[8:3]/8qq1[8:3],,15,15,,,,,,,,,
3b/7b,,26,,1>6[8:3]/5,,48,48,,,6p8[4:1],,7,,8<4[4:1],,
{8}1xh[8:3],,,,15,48,37,26,
{16}1b/5,8,7,6,5/E3,E2,E1,E8,E7/4,3,2,1,8,7,6,5,
{1}4/Cf,
{8}2>5[8:1],,8p4[8:1],,3q5[16:5],,1,8,
{16}7b,,,46,,,35,,,2,4,2,4,,,,
13,,,28,,,17,,,6,8,6,8b>7[4:3]*<1[4:3],,,,
{1}A8f/E1/E8,
{8},7,68,5,34,25,1q5[8:1]/6,78,
1/7p3[8:1],,7/4>7[4:1],,4,,5,6,
{16}7h[4:1],,,,8,,6,,56,,4,5,4qq5[8:3],,37,,
{8}6pp5[8:3]/4,,6,,2,3,4,5,
6,2,13,4,56,78,1p4[8:1]/2,34,
1/2q6[8:1],,2/8<3[4:1],,18,,1q3[4:1],2,
{16}1/3<8[4:1],,,,2x,,,,3h[8:1],,1,2,1-5[8:1],,37,,
1/2-4[16:1],,,,8-6[16:1]/2,,,,8/1,2,3,4,7,6,5,4,
8<5[8:1],,1,,28,,3,3,4<7[8:1],,3,,24,,1,1,
8>3[8:1],,7,,68,,5,5,4>1[8:1],,5,,46,,7,7,
{8}8>3[8:1],7<4[8:1],8p6[8:2],7,8>5[8:2],,8x,,
{16}1b,,28,,3p5[8:2]/7q5[8:2],,46,46,,,,,,,,,
2/8<5[8:1],,1,,28,,3,3,4<7[8:1]/2,,3,,24,,1,1,
6/8>3[8:1],,7,,68,,5,5,4>1[8:1]/6,,5,,46,,7,7,
{8}8b,17,26,35,4b/8b,37,2>6[4:1]/6,15,
{8}2p6[8:2]/6p2[8:2],,2x<3[8:4],,,,,,
{16}7h[8:3],,,,,,3xh[8:1],,{24}A7,D7,A6,D6,A5,D5,{16}A4/8,,1,,
{16}2b/5,,3,4,1<4[8:2],8,2,2,1,,,,8,,1,,
2/5b,,4,3,1>6[4:1],2,8,8,1,,,,1,,8,,
7h[8:1],,5,6,2h[8:1],,4,3,8h[8:1],,4,6,1h[8:1],,5,3,
8,7,6,5,4/C,3,2,1,8/A4,A5,A6,A7,A8/4,A1,A2,A3,
4x/7b,,6,5,8>5[4:1],1,7,7,8,,,,1,,8,,
4b/7,,5,6,8<3[4:1],7,1,1,8,,,,8,,1,,
2h[8:1],,6h[8:1],,3h[8:1],,5,5,,4,4,,7h[8:1],,5,,
48,,37,,2qq1[16:4]/6qq7[8:3],,15,15,,,,,,,2x,,
{8}3q8[4:1],,8q5[4:1],,5q3[8:2],6,7,8,
{16}1b,8,7,6,5/E1,E8,E7,E6,E5/8,7,6,5,4,3,2,1,
8/A4,A3,A2,A1/A7,A6,A5,A4/8xh[8:3],,,,,,6,,2,,
8,7,6,35,2,1,8/Ch[8:3],,,,,,B4/E4,,E8/B8,,
A1,A2,A3,A4/A6,A7,A8,A1/5h[8:3],,,,,,7,,3,,
8,1,8,,2,1,2,,E8,E7,E6,,E3,E4,E5,,
{16}8h[16:3],,,4h[16:3],,,6h[8:3],,,,,,5h[4:1],,,,
{16}7h[4:1],,,,,3,4,5,{24}A1,E1,A8,E8,A7,E7,A6,E6,A5,E5,A4,E4,
{1}A3/E1f,,
{4}2>5[4:1],5p8[4:1],8p3[4:1],3>8[4:1],
{16}7,6,5,4,3,2,1,8,7/A3,A4,A5,A6,A7,A8,A1,A2,
{4}A3/7<4[8:1],7b/8,2>5[8:1],2b/1,
{8}8q5[6:1],,6/8b,,1p4[6:1],,1b/3,2,
{16}1/5x,,2/6,,3/7,,4/8,4/8,,37,3/7,,2/6,,1/5,,
7b/8b,,1b/6b,,2bq4[4:1]/5b<1[4:1],,4b/3b,4b/3b,,,,,,,,,
{16}2b/5,,3,4,1,8,2,2,7,5,6,4,5,3,4,3,
2/5b,,4,3,1,2,8,8,5,7,4,6,3,5,2,4,
1h[8:1],,8,2,4h[8:1],,1,7,5h[8:1],,6,4,8h[8:1],,1,1,
7,5,6,4,5,3,4,2,1,3,8,4,7,5,6,5,
4/7b,,6,5,8,1,7,7,2,4,3,5,4,6,5,6,
4b/7,,5,6,8,7,1,1,4,2,5,3,6,4,7,5,
8h[8:1],,6h[8:1],,1h[8:1],,5,5,8,4,7,3,6,2,5,1,
4b/8b,,15,,26,,37,3,8<4[8:2],,4,,3,,2,,
{8}1>5[8:2],,5p8[4:1],,8,7,6,5,
4<8[4:1],A1,A2,A3,4x>8[4:1],8,7,6,
5<1[4:1],,1p4[4:1],,4,3,2,1,
8>4[4:1],,4<8[4:1],,8>4[4:1],,4qq5[4:3]*<4[4:6],,,,,,
E
