&title=KAMAITACHI
&artist=DJ TECHNORCH fw. GUHROOVY
&first=0.22
&des=ホシノちゃん for KOM5
&des_5=ホシノちゃん for KOM5
&lv_5=14
&inote_5=(165)
{1},
{16}3/6,,4,5,3/6,,7,2,8-4[8:1],1,2V48[16:3]/7,,8b,,,,
{8}5b,6h[8:1],1,6h[8:1],2,6h[8:1],2,6h[8:1],3,6h[8:1],3,6h[8:1],4,6h[8:1],4,4b/6b,
{8}4b/6h[8:1],2,3/4h[8:1],1,4/6h[8:1],2,3/4h[8:1],1,4/6h[8:1],2,3/4h[8:1],1,
{16}1/2-6[8:1],,3,4,2,,7,,
{16}8b,1,7,1,8h[8:1],,3,4,2,4,3h[8:1],,6,6,5h[8:1],,
{16}7,8,6,8,7h[8:1],,4,5,3,5,4h[8:1],,1,1,3h[8:1],,
{16}7b,8,7,8,7h[8:1],,2,1,2,1,2h[8:1],,6,5,7h[8:1],,
{16}3b,4,3,2,3h[8:1],,7,8,7b,6,7h[8:1],,8,1,2,3,
{8}4b>1[4:5]/8bqq8[8:15],,,,,,,,,,,,,,,8qq8[8:4],1>5[8:5],,,,,,1<1[8:5]*V75[16:5],,,,,,,8b,,,
{16}3-5[8:1]/5,,,,7h[8:3],,,,,6v1[8:1],6,,5,,,,3-5[8:1],,,,3/8,,7-4[8:1],,,,7/8,,2h[8:1],,,,
{8}1-6[8:1]/8,2,3-8[8:1]/1,4,3/5-2[8:1],6,5/7,8,
{16}1,1,1,1,1,1,1,1,1s5[8:1]*s5[8:1],1,1,1,,,,,
{16}8b-4[8:1]/1b,,7,,1-6[8:1]/8,2,3h[8:1],,1-5[8:1],,2,7,1,,8,,
{16}1-5[8:1]/4,,2,,1-3[8:1]/8,7,6h[8:1],,1-6[8:1],,7,4,1,,2,,
{16}1b-5[8:1],,2,,8-3[8:1]/1,7,6h[8:1],,8-4[8:1],,7,2,8,,1,,
{16}1-5[8:1]/4,,2,,1-3[8:1]/8,7,6h[8:1],,1,,5,4,5,,3/6,,
{16}1b-5[8:1]/8b,,2,,8-3[8:1]/1,7,6h[8:1],,8V64[8:1],,7,2,8,,1,,
{16}8-4[8:1]/5,,7,,8-6[8:1]/1,2,3h[8:1],,8V24[8:1],,2,5,8,,7,,
{16}8b-4[8:1],,7,,1-6[8:1]/8,2,3h[8:1],,1V35[8:1],,2,7,1,,8,,
{16}1b-5[8:1],,3/5-2[8:1],,7h[8:1],,,,
{16}6v8[8:1],6,2v4[8:1],2,,,,,
{16}8b,7,6,5,8<4[4:1]/4,1,2,3,4>4[2:1]/8,3>7[4:1],2<6[4:1],1<5[4:1],8<4[4:1],,,,4>4[2:1],3>7[4:1],2<6[4:1],1<5[4:1],8<4[4:1],,,,4-8[8:1],,1,2,3,,3h[8:1],,
{16}7b,5,7,5,6,5,6,5,6,4,6,4,5,3,5,3,4,2,4,2,3-7[8:1],1,3,1s5[16:3],,,,,7h[4:1],,,,
{16}1b,2,3,4,1>5[4:1]/5,8,7,6,5<5[2:1]/1,6<2[4:1],7>3[4:1],8>4[4:1],1>5[4:1],,,,5<5[2:1],6<2[4:1],7>3[4:1],8>4[4:1],1>5[4:1],,,,5-1[8:1],,8,7,6,,6h[8:1],,
{16}2b,4,2,4,3,4,3,4,3,5,3,5,4,6,4,6,3b,7,3,7,2b,8,2,8,1,1,1,1,1-6[8:1]*pp5[2:1],1,1,1,
{8}1b,,7s3[16:3],,7V51[4:1],,7h,,4q8[8:1],3qq1[8:1],4h,3h,
{16}6qq4[8:1],,2qq8[8:1],2h,,,,,
{8}5v8[8:1],7-4[8:1],,,
{16}1v3[8:1],2h,3-5[8:1],,,,,,
{16}6,,4,5,3/6,,7,2,8-4[8:1],1,2V48[16:3]/7,,8b,,,,
{16}7b-1[8:1],6,5,,7-5[8:1],2,,2,7,1-5[8:1],1,,6,1,,6,
{16},7-2[8:1],7,,2,7,,4>8[8:1],,1,1,,7,7h[8:1],,1h[8:1],
{16},5-1[8:1],5,,2,5,,3>8[8:1],,7,7,,5,5h[8:1],,1,
{16}2-6[8:1],3,4,,2,5,,5h[8:1],8,1,2h[8:1],,4,5,6,7,
{16}2b-8[8:1]/8,3,4,,2-4[8:1],7,,7,2,8-4[8:1],8,,3,8,,1,
{16},2-7[8:1],2,,7,2,,5<1[8:1],,8,8,,2,2h[8:1],,8h[8:1],
{16},4-8[8:1],4,,7,4,,6<1[8:1],,2,2,,4,4h[8:1],,8,
{16}7-3[8:1],,4/6,,3/7,,1,1,4,2,5h[8:1],,8,1,2,3,
{8}4/8b-4[8:33]*-4[8:33],,2h[8:1],,2h[8:1],,2h[8:1],,1h[8:1],,1h[8:1],,1h[8:1],,1h[8:1],,7h[8:1],,7h[8:1],,7h[8:1],,7h[8:1],,8h[8:1],,8h[8:1],,8-4[8:1],,8,,
{16}3b>5[4:7],,,,3,,,,,7h[16:1],,,2,,,,6,,,,1,,6,,,,7,,4<3[4:6],,,,
{16}4,,,,8,,,,,4h[16:1],,,8,,,,7,,,,6,,,,5w1[8:1],,,,5b,,,,
{16}2b,1,2b,1,2h[8:1],,6b,5,6b,5,6h[8:1],,4b,5,3b/6b,,
{16}7b,8,7b,8,7h[8:1],,3b,4,3b,4,3h[8:1],,8b,1,7b/2b,,
{16}3b,3,3h[8:1],,6b,6,6h[8:1],,2b,2,2h[8:1],,7b,7,7h[8:1],,1b,1,1h[8:1],,8b,8,8h[8:1],,2,1b/3b,,5/6,4b/7b,,3b/6b,,
{12}2b/5b,2,2,2/4,4,4,4/5,5,5,5/7,7,7,
{12}3/7,3/7,3/7,2/6,2/6,2/6,1h/5h,1h/5h,1h/5h,8b/4b,8b/4b,8b/4b,
{32}4h[8:7]/8b,1,2,3,,5,6,7,8,1,2,3,,5,6,7,8,1,2,3,,5,6,7,8v5[8:1]*v3[8:1],1,2,3,,5,6,7,
{16}8,,,,2/6,,7,2,8-4[8:1],1,2V48[16:3]/7,,8b,,,,
{16}7b-1[8:1],6,5,,7-4[8:1],3,,3,7,1-5[8:1],1,,5,1,,7,7>2[8:1],4,4,,7,5,,5h[16:1],1,4,8,3,7,1,6,2h[16:1],
{16}7-5[8:1],8,1,,7-3[8:1],3,,3,7,5-1[8:1],5,,8,5,,7,7>2[8:1],3,6,,7,4,,4h[16:1],8,8,2,6,5,7,4,8h[16:1],
{16}2b-8[8:1],3,4,,2-5[8:1],6,,6,2,8-4[8:1],8,,4,8,,2,2<7[8:1],5,5,,2,4,,4h[16:1],8,5,1,6,2,8,3,7h[16:1],
{16}2-4[8:1],1,8,,2-6[8:1],6,,6,2,4-8[8:1],4,,1,4,,2,2<7[8:1],6,3,,2,5,,5h[16:1],1,7,3,5,4,6,2,8,
{16}1b,2,3,4,1>5[4:1]/5,8,7,6,1/5<5[2:1],6<2[4:1],7>3[4:1],8>4[4:1],1>5[4:1],,,,5<5[2:1],6<2[4:1],7>3[4:1],8>4[4:1],1>5[4:1],,,,5,6,7,8,1,2,3,4,
{16}8b,1,2,3,8>4[4:1]/4,7,6,5,4<4[2:1]/8,5<1[4:1],6<2[4:1],7>3[4:1],8>4[4:1],,,,4<4[2:1],5<1[4:1],6<2[4:1],7>3[4:1],8>4[4:1],,,,5,,5,6,7,,7b/3b,,
{16}8b,7,6,5,8<4[4:1]/4,1,2,3,4>4[2:1]/8,3>7[4:1],2<6[4:1],1<5[4:1],8<4[4:1],,,,4>4[2:1],3>7[4:1],2<6[4:1],1<5[4:1],8<4[4:1],,,,4,3,2,1,8,7,6,5,
{16}4b,7,5,6,3,4,2,5,1,8,2,6,8,7,1,6,2b,2,8,8,6b,6,2,2,4b,4,5,5,3b,6,2,7s3[16:17],1b-5[1:1],
