&title=ピアノ×フォルテ×スキャンダル
&artist=OSTER project
&first=0
&des=LiTANiA
&lv_5=13
&inote_5=(135){4},,,,
{16}5/2h[16:3],,,5,4,3,,25,,34,,5,4,3,,6,
{16}4/7h[16:3],,,5,8,,5,6,7h[8:1]/4h[8:1],,,,6h[8:1]/5h[8:1],,,,
{16}4/7h[16:3],,,4,5,6,,74,,65,,4,5,6,{24}4,5,4,
{16}36,5,4,6,5,4,6,5,4,6,5,4,{48}3-6[8:1]/7-2[8:1],,,,,,,,,,,,
{16}3b/7b,,,,3,4,,25,,2,3,4,3,5,,46,,7,5,,5,8,,47,,{32}6,5,6,,{16}4,7,6,5,4h[8:1],
,5,6,7,3,4,5,6,2,3,6,7,1,2,7,8,1,1,8,2,,34,,65,,8,1,{32}7,6,5,4,3,2,1,8,7,6,
{16}1b/5b,,3V15[16:5],4,,4,3,,,,8,,8h[8:1],,,,74,,6,5,,5,6,,4/7h[8:2],,6,,5h[8:2],,6,,
8,,6V84[16:5],5,,5,6,,,,1,,1h[8:1],,,,25,,3,4,2,4,1,,25,2h[16:1]/5h[16:1],,,34,3h[16:1]/4h[16:1],,,
25,,1<3[8:2],7,,7,1,,,,8,,8h[8:1],,,,47,,56,,4,5,,34,,2,5,1h[16:3],,8,8,,
2,5,4,7,3,6h[8:1],,1,,1h[8:1],8,7,2,3,7,6,3,4,5,5,2,3,4,4,1,2,3,,18,18,,,
4/7,,6V84[16:5],5,,5,6,,,,1,,1h[8:1],,,,25,,3,4,,4,3,,5/2h[8:2],,3,,4h[8:2],,3,,
1,,3V15[16:5],4,,4,3,,,,8,,8h[8:1],,,,74,,5,6,7,4,5,6,74,7h[16:1]/4h[16:1],,,65,6h[16:1]/5h[16:1],,,
74,,8>6[16:4],3,,3,8,,,,1b,,,2b/8b,,,3b/7b,,6,5,4,,35,,2-6[8:1]/6,,7>5[8:2],,2,,7,,
,,2,2h[16:10],,1,,3,,8-4[8:1],,4,,8,,,2,5,3,3,4,2,3,3,1h[8:1],,{32}4,5,6,,3,,4,,25,,,,
{16}1b/8b,,7,,{32}2/8h[8:1],3,4,5,6,7,8,1,2,3,4,5,6,7,8,1,
{16}2V84[8:2],,3,,5,,6,,7V51[8:2],,8,8,,,4,,3,,2,,
{16}3-8[8:1],,,7,3V14[8:2],,,6,3,,5-8[8:1],,6h[8:4],,,,,,1-4[8:1],,2h[8:3],,,,,,7,,{16}8/1,,2,,
{32}7/1h[8:1],6,5,4,3,2,1,8,7,6,5,4,3,2,1,8,
{16}7V15[8:2],,6,,4,,3,,2V48[8:2],,1,,7,,6,6,,,57,,4>5[8:2]/6,,35,,2h[8:3]/4,,,,,,4,,3/5-2[8:1],,6,,8,,7-4[8:1],,,,7V15[8:7],,2,,7b,,,,,,3h[384:1],,,,4h[16:7],,,,,,,{32}6,5,
{16}6,3,4,5,2,3,{24}5,4,6,{16}5,5,6,2,7b-4[8:1]/3b-8[8:1],4b/8b,,,3<6[8:1]/7>2[8:1],,,,37,,,,3h[8:1],,4,1,8q5[8:1],2,,,8/6>3[8:1],,7h[8:3],,6,,,,2>4[8:1],,1,,5-1[8:1]/2,,6,,
5/7w3[8:1],,,,7,,,,7h[8:1],,5,6<1[8:1],1,8,,6/4v7[16:3],,,5,,6q2[8:1],,5,,36,,4,4>5[16:5],,35,,4/2h[16:5],,,,,,,,,1h[8:1],,4,2pp6[16:5],8,3,,26,,,7,,8,8h[8:1],,4,
6,5,3,2,7,6,4,3,
8,2,6,8,5,3,8,8,{32}3,4,3,4,{24}2,5,4,{16}7h[8:1],,1,1,7,6b/8b,,3,2b/4b,,1,3b/7b,,{32}4,5,6,7,8,1,25,6,7,8,1,2,3,4,
{16}15,,1h[16:3]/5,,,{32}4,3,{16}4,2,5,6,4,3,6,7,3,2,
8h[8:1],,1,4,,3,,{32}5,4,{16}5,3,,7,,{32}5,6,{16}5,7,4h[8:2],,,,6,5,3,4,7h[8:1],,4,3,,5,{32},,36,27,{16}8z4[8:1]/1s5[8:1],,,,,,,,{32}4,5,4,5,{16}4,6,5,3,4,,{16}2b/7b,,1h[8:1]/8,,6,5,,74,,7,6,5,6,4,,53,,2,4,,4,1,,32,,45,,67,,7,5,4,2,,1/8h[8:1],,3,4,,52,,{32}3,4,{16}3,5,2,3,6,5,{16}1,7,3,1,4,6,1,5,2,7,{24}1,8,1,8,1,8,1,8,1,
{16}2bpp4[8:1]/7bqq5[8:1],,,,27,,,,6h[8:1],,5,8,1p4[8:1],7,,,1/3<6[8:1],,2,,38,,1>4[8:1],,4-8[8:1],,15,,6-2[8:1],,7,,
56,,,,37,,,,2h[8:1],,4,3>8[8:1],8,1,,3/6q2[16:3],,,5,,3p7[16:2],,4,,63,,5,5>6[16:5],,74,,5/2h[16:5],,,,,,,,,1h[8:1],,4,3qq6[16:5],8,2,,36,,,7,,8,8h[8:1],,4,
6,5,3,2,7,6,4,3,
8,5,6,3,4,1,5,3,8,4,7,{32}5,6,{16}5,7,3,5,
1bp4[8:1]*q6[8:1],,,,1,,,,3h[8:1],,4,1,8q5[8:1],2,,,8/6>3[8:1],,7,,61,,8<5[8:1],,5-1[8:1],,84,,3-7[8:1],,2,,
4/3,,,,26,,,,7h[8:1],,5,6<1[8:1],1,8,,6/3p7[16:3],,,4,,6q2[16:2],,5,,36,,4,4<3[16:5],,25,,4/7h[16:5],,,,,,,,,8h[8:1],,5,7qq3[16:5],,1/5,,7/3,,,2,,1,1h[8:1],,5,
2,4,5,7,3,1,8,6,
1,7,3,1,4,6,1,1,{32}6,5,6,5,{24}7,4,5,{16}2h[8:1],,8,7,1bs5[8:2]/6b,,3b/7b,,{12},6,7,8,1,2,73,8,1,{16}62,,3/7h[8:1],,5,6,3,4h[8:1],,3,6,5h[8:1],,8h[8:1],,5,7,{32}4,5,{16}4,6,3,4,5,6h[8:1],,1,{32}4,3,{16}4,2,4,5,7,1b/6b,,3b/8b,,6b/5b,4b/7b,,1b/8b,,3,4,5/2h[8:1],,8h[8:1],,1,
2b/7b,{32}3,4,{16}3,5,2,3,6,5,1,
7,6,5,6,5,4,3,8,8,1,7,,46,,3h[8:1]/5,,4,2,8h[16:2],,6h[8:1],,5,1,7,3,1,4,6,1,1,{32}6,5,6,5,{24}7,4,5,{16}2h[8:1],,8,8,2,3b/1b,,6,7b/5b,,8,6b/2b,,{32}3h[16:1],,1,8,7,6,{16}15,48,,{32}1b/5b,26,37,48,1/5h[32:6],,,,,,{24}6,4,5,3,,
