&title=popotnik ~ The Traveller of Ljubljana
&artist=LhoU
&first=1.1
&des=GC
&des_5=GrandChan
&lv_5=13+
&inote_5=(130){4},,,,{1}1h[4:7]/8<1[2:7],
,3h[4:3],
{4}5,6,7,8,
2h[8:15]/E5,E6,E7,E8,
E1,E2,E3,E4,
1h[8:15]/B5,B7,B1,B3,
3h[8:1],4h[8:1],5h[8:1],6h[8:1],
7h[4:1]/E2,{8}E3,7h[4:1],{4}E4,7h[8:1]/E5,
2h[4:1]/E8,{8}E7,2h[4:1],{4}E6,2h[8:1]/E5,
6h[4:1]/E1,{8}E2,6h[4:1],{4}E3,6h[8:1]/E4,
5h[8:1]/2h[8:1],4h[8:1]/7h[8:1],1h[8:1]/6h[8:1],8h[8:1]/3h[8:1],
2h[4:1]/E6,{8}E7,2h[4:1],{4}E8,2h[8:1]/E1,
7h[4:1]/E4,{8}E3,7h[4:1],{4}E2,7h[8:1]/E1,
3h[4:1]/E5,{8}E6,3h[4:1],{4}E7,3h[8:1]/E8,
1h[8:1]/6h[8:1],8h[8:1]/3h[8:1],5h[8:1]/2h[8:1],4h[8:1]/7h[8:1],
{8}2h[8:1],{16}4,3,5,4,6,5,{8}7h[8:1],{16}5,6,4,5,3,4,
{8}2h[8:1],{16}4,3,5,4,6,5,8qq4[4:1],1,7,2,{4}8,
{8}1h[8:1],{16}5,3,6,4,7,5,{8}8h[8:1],{16}4,6,3,5,2,4,
{8}1h[8:1],{16}5,3,6,4,7,5,8-4[16:1],1,7,2,{4}8xw4[16:1],
{8}8b,{16}2,5,3>8[16:1],4,2,4,{8}3,{16}7,4,6<1[16:1],5,7,5,
{8}6,{16}2,4,3,7,5,6,1-5[16:1],8,2,7,{4}1xw5[16:1],
{8}1b,{16}7,4,6<1[16:1],5,7,5,{8}6,{16}2,5,3>8[16:1],4,2,4,
{8}3,{16}6,5,7,3,4,2,5,4,5,4,{4}2b/7b,
4x/5x<1[8:1],B2/E3/B3,5>1[8:1],E8/B7/B8,
4<8[8:1],B2/B1/E2,4>8[8:1],B7/E7/B6,
5<1[8:1],{8}1,3,{4}5>1[8:1],{8}1,7,
{1}5qq7>6[2:1],
{4}2x/1x<5[8:1],B6/B7/E7,1>5[8:1],B3/E4/B4,
8<4[8:1],B6/B5/E6,8>4[8:1],E3/B2/B3,
{2}5x-1[16:1]/1x-5[16:1],7x-3[16:1]/3x-7[16:1],
{1}1bx/5bx<5[2:1]*>5[2:1],
{4}6/4,5/3,6/4,{8}5h[16:1]/3h[16:1],6h[16:1]/4h[16:1],
{4}5/3,6/4,5/3,{8}7/4,6/3,
{4}5/2,7/4,5/2,{8}5h[16:1]/3h[16:1],6h[16:1]/4h[16:1],
{16}3,4,2,2,6,5,7,7,2,4,3,5,4,5,3,4,
{4}3/5,4/6,3/5,{8}4h[16:1]/6h[16:1],3h[16:1]/5h[16:1],
{4}4/6,3/5,4/6,{8}2/5,3/6,
{4}4/7,2/5,4/7,{8}4h[16:1]/6h[16:1],3h[16:1]/5h[16:1],
{16}7,5,6,6,2,4,3,3,7,5,6,4,5,4,6,5,
{8}4/6h[8:1],{16}5,6h[8:1],,,{8}5/3h[8:1],{16}4,3h[8:1],,,6,5,6,5,
{8}6h[8:1],{16}5,6h[8:1],,,{8}5/3h[8:1],{16}4,3h[8:1],,,{8}3h[16:1]/4h[16:1],4h[16:1]/5h[16:1],
5/6h[8:1],{16}5,6h[8:1],,,{8}5/3h[8:1],{16}4,3h[8:1],,,{8}3h[16:1]/4h[16:1],4h[16:1]/5h[16:1],
{16}6,4,6,5,5,4,6,4,5,5,6,4,{8}5,4,
5/3h[8:1],{16}4,3h[8:1],,,{8}4/6h[8:1],{16}5,6h[8:1],,,3,4,3,4,
{8}3h[8:1],{16}4,3h[8:1],,,{8}4/6h[8:1],{16}5,6h[8:1],,,{8}6h[16:1]/5h[16:1],5h[16:1]/4h[16:1],
4/3h[8:1],{16}4,3h[8:1],,,{8}4/6h[8:1],{16}5,6h[8:1],,,{8}6h[16:1]/5h[16:1],5h[16:1]/4h[16:1],
{16}3,5,3,4,4,5,3,5,4,4,3,5,{8}4,5,
{2}4b/6b<4[8:29],E6,
E7,E8,
E1,E2,
E3,6<8[16:1],
{4}8x/2b>6[2:1],B4,6<2[2:1],B8,
2>6[2:1],B4,6<2[2:1],B8,
2>6[2:1],{8}B4,{16}8x,7x,{4}6x<4[4:3],B8,
Cfh[2:1],{32},,,,,,,,,,,,,,,,5x,4x,3x,2x,1x,8x,7x,6x,
{4}4bx/5bx<1[8:1],5/3,6/5>1[8:1],5/7,
3/4<8[8:1],4/1,5/4>8[8:1],7/4,
3/5<1[8:1],{8}1/5,3,{4}7/5>1[8:1],{8}1/5,7,
{1}3/5pp3>4[16:9],
{4}2/1<5[8:1],1/B3/E4/B4,7/8>4[8:1],8/E6/B6/B5,
3/1<5[8:1],1/B3/E4/B4,6/8>4[8:1],8/B6/E6/B5,
{32}1xh[8:3]/5xh[4:1],,,,,,,,,,,,,2x/8x,7x/3x,6x/4x,{4}5bx-1[16:1],5bx<1[8:3]*>5[4:3],
5bx,,,{64}D4/A4/E4,A3,D3,A2,D2,A1,D1,A8,D8,A7,D7,A6,D6,A5,D5,A4,
{8}7b/D4/E4/A3f,{16}8,8,2-5[0.4615##0.1154],1,3,1,{8}2,{16}6,1,7<4[16:1],8,6,8,
{8}7,{16}3,4,2,6,5,7,1-5[0.4615##0.1154],8,2,7,{64}1x<6[0.4615##0.1154]*>4[0.4615##0.1154],,{32},,,,,,,{8}1b,
{16}5,5,3>8[16:1],4,2,4,{8}3,{16}7,4,6-1[16:1],5,7,5,
{8}6,{16}3,4,2,6,5,7,4-8[16:1],5,3,6,{4}4x>1[16:1]*<7[16:1],
{8}4b,{16}8,1,6>3[16:1],5,7,8,{8}6,{16}2,1,3>8[16:1],4,2,4,
{8}3,{16}7,5,6,2,4,3,5-1[16:1],4,6,3,{4}5x<8[16:1]*>2[16:1],
{8}5b,{16}1,8,3<6[16:1],4,2,1,{8}3,{16}7,8,6<1[16:1],5,7,5,
{8}6,{16}2,4,3,7,5,6,4-8[16:1],5,3,6,{4}4x>1[16:1]*<7[16:1],
{8}4b,{16}8,8,2-5[0.4615##0.1154],1,3,1,{8}2b,{16}6,1,7-4[16:1],8,6,8,
{8}7b,{16}1,8,3<6[16:1],4,2,1,{8}3b,{16}8,1,6>3[16:1],5,7,8,
{8}6b,{16}2,1,3b>8[16:1],4,2,4,{8}3b,{16}7,8,6b<1[16:1],5,7,5,
{8}6b,{16}2,4,3,7,5,6,1w5[16:1],8,2,7,{32}1b,Cf,
E
&inote_6=(125)
E
&inote_7=(125)
E
