&title=我起床
&artist=Duang舟
&first=-1.718
&des=我写谱 BV1ywBFBvEY1
&lv_7=hyw
&inote_7=(103)
{4},,,{32}2?-7b[8:25]/B8,B7,B4,C,B1,E7,B6,E4,E8,C,B3,E2,E6,B5,E3,B8,B2,C,E7,B5,E6,B1,B7,E4,E3,,,,{128},B8h[32:1]/B1h[32:1],,Cf,,E5h[32:1],,,
{16},,,,,,,5?-8[10300#8:100]/4?-1[80:1],,,,,,,1?v3[10300#8:100],,,6?v8[10300#8:100],,,1?v3[10300#8:100],,,6?v8[10300#8:100],,,,,,1?-4<5-8>1b[33#16:1],,,,,,B3h[32:13],,,,,{32},,,B2f,{16},,,{4},5-1[16:3],,2v3-1[8:1]/7v6-8[8:1],,{16},,A7f/7?>3v5b[10300#8:300],,,,,,,,,,,,,,,{32},6-3[206#8:2]/2-7[206#8:2],{16},,C,,,,E1/E5,,,C,,,,A7h[16:3],,,,,{4}3-6-3-6-3[10300#4:375]/6-3-6-3-6[10300#4:375],,,,
(103.5)
{4}D3/E3/Cf/D7/E7,B1/B2/E3/B3/B4,Ch[4:1],B8/B7/E7/B6/B5,3-7[12:1],,B7f/2?<7q4[4:1],,{16}6h[16:3],,,5h[16:3],,,4h[16:3],,,3h[16:3],,,4,,5,,3h[16:3],,,4h[16:3],,,5h[16:3],,,6h[16:3],,,1<1<1[206#16:15],,8,,,,E6,B6,B7,E8,,,7h[4:1],,1-5-3[4:1],1,{4},,,{32}Cf,Cf,Cf,Cf,Cf,Cf,Cf,Cf,{16},,B1h[8:9],B8h[16:17],,,,,{24}B3,B4,B5,{32},B6,,,{24}3,4,5,{32},6,,5,,4,,,3,,,,{4},,{16}B8f,,,,,,7v2v7v2v7v2v7v2v7v2v7[10300#8:900]/2v7v2v7v2v7v2v7v2v7v2[10300#8:900],,{4},,,,{8},
{48}D3,E3,C,{16}B8/B7/B6/B5/E7/6?-3[10300#8:150]/3?-6[10300#8:150],,,,,,,A2/E3/D3f/A3,,6-2[10300#8:200]/5?-8[75#32:1]b/4?-1[75#32:1]b,,,,,,,,,,{32}B8/3^6p1[10300#8:230],E8,E7,B8,E8,E7,B8,E8,E7,,,,{4}4?w8[30#64:1]/5?w1[30#64:1],,,,{32},D7h[4:4]/D3h[4:4],4?q1[10300#32:700]b,,,,,,,1?-6-4q3-5-2-6^7^6-3-5-1[10300#32:1900],,,{8},,,,1?w5[10300#4:70]b,,{32},E8h[32:3],,,{8},1<1<1[10300#4:400]/5>5>5[10300#4:400],
{4},,,,{8}6-8[53#64:1]b/3-1[53#64:1]b,,,C,,,,,{48},8b,,,8b,,,8b,,8b,,8b,,8b,,,,,,,,,,,{192}8b,1b/7b,2b/6b,3b/5b,{48}4b,,,,,{16}3x-1[10300#16:100],4x-8[10300#16:100],5x-1[10300#16:100],6x-8[10300#16:100],3x^1[10300#16:100]b,4xp8[10300#16:100]b,5xq1[10300#16:100]b,6x^8[10300#16:100]b,{8},,{16}A1/A8,D2/D8,A1/A8,D2/D8,A1/A8,D2/D8,A1/A8,D2/D8,A1/A8,D2/D8,
{4}7x>3v5[4:6]b,,,,,,,,{16}8x-6[10300#16:100],1x-5[10300#16:100],8x-4[10300#16:100],1x-3[10300#16:100],8x^6[10300#16:100],1xp5[10300#16:100],8xq4[10300#16:100],1x^3[10300#16:100],8x-6[10300#16:100]b,1x-5[10300#16:100]b,8x-4[10300#16:100]b,1x-3[10300#16:100]b,8x^6[10300#16:100]b,1xp5[10300#16:100]b,8xq4[10300#16:100]b,1x^3[10300#16:100]b,,,{32}A4h[32:3],,,{96}D5/E5,A5/B5,D6/E6,A6/B6,D7/E7,A7/B7,D8/E8,A8/B8,E1/D1,,,,,,,,,,,,,,,,,,,{8}7s3^4-7s3^4-7[40:39],,{32}B2,B3,,,B4,E4,,,B2,B3,,,B4,E4,,,B2,B3,,,B4,E4,,,B2,B3,,,B4,E4,,,{4}4hx[4:7]/5hx[4:7],,,,{32}3?-6-3-6-3-6-3-6-3-6-3-6-3-6-3-6-3-6-3-6-3-6-3-6-3[25.88#4:4],6?-3-6-3-6-3-6-3-6-3-6-3-6-3-6-3-6-3-6-3-6-3-6-3-6[26.8#400:415],{16},,7?v2v7v2v7v2v7v2v7v2v7v2v7v2v7v2v7v2v7v2v7v2v7v2v7v2v7v2v7v2v7v2v7v2v7v2v7v2v7v2v7v2v7v2v7v2v7v2v7v2v7v2v7[32#400:495]/2?v7v2v7v2v7v2v7v2v7v2v7v2v7v2v7v2v7v2v7v2v7v2v7v2v7v2v7v2v7v2v7v2v7v2v7v2v7v2v7v2v7v2v7v2v7v2v7v2v7v2v7v2[32#400:495],,,1?<1<1<1<1<1<1<1<1<1[41.5#400:641]/5?>5>5>5>5>5>5>5>5>5[41.5#400:641],,,7?s3^4-7s3^4-7s3^4-7s3^4-7s3^4-7[59#400:913],,,,,,,
{8}A1/A8/1?v3[10300#8:100]b,D8/D2,A1/A8/6?v8[10300#8:100]b,D8/D2,A1/A8/1?v3[10300#8:100]b,D8/D2,A1/A8/6?v8[10300#8:100]b,D8/D2,A1/A8/1?v3[10300#8:100]b,D8/D2,A1/A8/6?v8[10300#8:100]b,D8/D2,A1/A8/1?v3[10300#8:100]b,D8/D2,A1/A8/6?v8[10300#8:100]b,D8/D2,A1/A8/1?v3[10300#8:100]b,D8/D2,A1/A8/6?v8[10300#8:100]b,D8/D2,A1/A8/1?v3[10300#8:100]b,D8/D2,A1/A8/6?v8[10300#8:100]b,D8/D2,A1/A8/1?v3[10300#8:100]b,D8/D2,A1/A8/6?v8[10300#8:100]b,D8/D2,A1/A8/1?v3[10300#8:100]b,D8/D2,A1/A8/6?v8[10300#8:100]b,D8/D2,{16},,4b,5b,E
