&title=Promised Prayer
&artist=nmk
&first=0
&des=えども~ん&NekoMuseigen
&lv_5=14
&inote_1=
&inote_2=
&inote_3=
&inote_4=
&inote_5=(154)
{1},
{8}4,5,46,{16}7,8,7,8,{8}7,82,,
{8}5,4,53,{16}2,1,2,1,{8}2,17,,
{8}6,5,74,{16}2,8,3,1,{8}2,38,,
{8}3,4,25,{16}7,1,6,8,{8}7h[8:1],{16}5,6,4,5,
{8}3,3h[8:1],1,1h[8:1],8,8h[8:1],6,6h[8:1],4v3[8:1],4,6v7[8:1],6,2v1[8:1],2,8,8,
{16}2,1,3,8,4,7,5,6,4,5,3,6,2,7,1,8,{12}2b,5b,3b,{4}6bV85[4:1]/4bV25[4:1],,,
{16}1-5[8:1]/2,,,,31,,,3,5-2[8:1],3,,3,5,,3,,2-7[8:1],,3,,2,3,,3,7-4[8:1],,,,,,,,
{16}4-1[8:1]/2,,,,34,,,3,1-5[8:1],3,,3,1,,3,,5-2[8:1],,3,,5,3,,3,2-7[8:1],,,,,,,,
{16}8-4[8:1]/7,,,,68,,,6,4-7[8:1],6,,6,4,,6,,7-2[8:1],,6,,7,6,,6,2-5[8:1],,,,,,,,
{16}5-8[8:1]/7,,,,65,,,6,8-4[8:1],6,,6,8,,6,,4-7[8:1],,6,,4,6,,6,7-2[8:1],,,,,,,,
{8}5^2[8:1],6,7,8,8-3[8:1],3-7[8:1],,,
{8}4^7[8:1],3,2,1,1-6[8:1],6-2[8:1],,,
{8}4^1[8:1],5,6,7,7-4[8:1],4-8[8:1],,,
{8}1^6[8:1],2,3,4,4-7[8:1],7-3[8:1],,,
{8}8b-4[8:1],4-7[8:1],3,2,2-5[8:1],5-1[8:1],6,7,7b-4[8:1],4-8[8:1],3,2,3-5[8:1],5-2[8:1],6,7,
{8}6b-8[8:1],6,3,4,5b-3[8:1],5,7,6,4b-6[8:1],4,3b-7[8:1],3,2b-4[8:1],2,1b,1,{16}1,1,1,1,{8}1,28,
{24}7,6,5,2,3,4,8,7,6,1,2,3,{4}8^5[8:1]/4q8[8:1],8^3[6:1]/4,{12}5v8[8:1]*v2[8:1],5,5,{4}5b,
{16}17,,2,4,3,,6,5,8-4[8:1],,,2,2,,,,{4}2-5[8:1]/6-2[8:1],2<5[3:1]/6,{8}3h[16:1],3h[16:1],3h[16:1],3h[16:1],
{16}53,,6,8,7,,2,1,4-8[8:1],,6,6,,,,,7,8,7,1,7,2,7,3,3b,4,3,5,3,6,3,7,{8}4v1[8:1]/8v5[8:1],48,48,,{16}2-6[8:1],,5,5<4[16:5],
{4}2,4-7[8:1]*-8[8:1],,{16}1,8,1,7,1,6,1,5,2b,2,1,3,8,4,7,5,6b,6,8,7,1,6,2,5,{32}3,4,5,6,7,8,1,2,3,4,5,6,7,8,1,2,
{12}3-8[8:1]/7-4[8:1],73,37,{4}3b/7b,6w2[8:1],,
{8}56,18,34,18,{16}6,5,8,1,4,3,8^3[4:1],1,{8}6h[16:1],6h[16:1],7h[16:1],7h[16:1],{16}4b/5b,,,,3,8,8,5,7,7,3,8,8,5,7,7,
{16}2,8,2,7,2,6,2,5,3,4,3,5,2,6,2,7,{24}1b/8b,27,36,45,,,
{8}2h[16:1]/6h[16:1],2h[16:1]/6h[16:1],
{8}3h[16:1]/7h[16:1],3h[16:1]/7h[16:1],
{8}4h[16:1]/8h[16:1],4h[16:1]/8h[16:1],
{8}1h[16:1]/5h[16:1],1h[16:1]/5h[16:1],
{8}2h[16:1]/6h[16:1],2h[16:1]/6h[16:1],
{8}3h[16:1]/7h[16:1],3h[16:1]/7h[16:1],
{8}4h[16:1]/8h[16:1],4h[16:1]/8h[16:1],
{16}1,2,1,2,{24}8,7,6,3,4,5,{16}7,8,7,8,{24}6,5,4,1,2,3,{8}47,16,38,25,{12}7v4[8:1]/1v4[8:1],71,71,{4}7b<1[4:7]/1b>7[4:7],,,,,,,,,
6h[8:2],{32}3,4h[32:7],,,,,,,{8}5,6,7,{16}8,8<5[16:5],,,4,,3,,2,,1h[8:2],,,,5,,4,,
34,,2,,18,,6,5,7,5,6h[8:1],,1,,34,,65,,7,,81,,3,4,2,4,3h[8:1],,8,,6,,45,,3,,1,,6,5,7,5,6h[8:1],,4,,
{16}6,5,7,,34,,24,,1h[8:2]/4,,{32}7,,,6,,,5,,1,2,3,4,5,6,7,8,
{16}
1b>4[8:1],,,,7,,,6,5>2[8:1],7,,7,5,,8,,1>4[8:1],,8,,1,7,,6h[16:5],5>2[8:1],,,,,,,,
8<5[8:1],,,,2,,,3,4<7[8:1],3,,3,4,,2,,
{12}15,15,15,2-5[8:1]/6-1[8:1],26,26,2^7[8:1]/6^3[8:1],,,2b/6b,,,
{16}
5<8[8:1],,,,3,,,2,1<6[8:1],2,,3,1,,4,,5<8[8:1],,4,,5,3,,2h[16:5],1<6[8:1],,,,,,,,
4>1[8:1],,,,6,,,7,8>3[8:1],7,,6,8,,5,,4>1[8:1],,5,,4,6,,7h[16:3],8>4[8:2],,,,7,,,,
{4}5v2[8:1],6h[4:1],1v6[8:1],2h[4:1],7v4[8:1],6h[4:1],3v8[8:1],2h[8:1],
{8}81,1,12,2,23,3,34,4,45,5,56,6,67,7,1h[8:1]/8h[8:1],,
{16}6,,5,,4/7-3[8:1],,6,5,7,,1,,5/2-6[8:1],,3,4,2,,5,,4/3-8[8:1],,2,1,3,,7,,56,,7,8,
6,4,6,5,6,3,6,5,6,2,6,5,6,1,6,5,6,8,6,5,6,7,6,5,6,6,6,6,6,6,6,6,5,4,3,2,
1h[16:1]/5h[16:1],,2h[16:1]/6h[16:1],,
{24}7,8,1,2,3,4,5,4,3,2,1,8,
{16}7h[16:3],,,6,6h[16:3],,,5,5h[16:3],,,1b,{24}7,6,5,1,2,3,
{8}8-5[8:1]/4-1[8:1],,8bqq1[16:5]/4b,,2>5[16:2],3,2b-6[8:1],,2b/1-5[16:2],,
{16}1b<6[16:2],,4,4,{8}1>4[8:1],2,8/1b,,{16}2-7[8:1]/5-8[8:1],,,,2bpp5[16:4]/5b,,,,6,,7,,8,,
{24}1,84,73,{16}6-1[8:1]/2,,3,,4b/6b,,5,,2,24,,7,7-3[8:1]/5,,18,,
2/7-4[8:1],,,,7b>2[8:1],,2,2,7b-3[8:1],,3,3,7bpp6[16:4],,4,,
{16}5-3[8:1],,,,5b,,,8,8-4[8:1],1,7,2,81,,,,3-8[8:1]/7-3[8:1],,,,3b<1[16:3],,,,
1h[16:1],,2h[16:1],,3h[16:1],,{24}4,83,27,{16}6b/1b,,,6h[16:1]/7h[16:1],,,
1>4[16:2]/8h[16:1],,2b,,,,6,6,5,5,4-8[8:1]*-1[8:1],,,,4bV63[16:4],,,,2-7[8:1],,1,,2b,,,,
8<5[16:2]/1h[8:2],,,,8bqq1[16:4],,2,3,4bqq5[16:4],,3,,4b,,,,
6h[16:1],,,5h[16:1]/4h[16:1],,,3h[16:1]/4h[16:1],,,2h[16:1]/3h[16:1],,,21,,
{24}18,27,36,{16}4b/5b,,34,25,,65,74,,1/8<5[8:1],,,,8b,1,2,3,
{8}4b-1[8:1],5-7[32:2]/2,74,5,1b-4[8:1],3/8-6[32:2],61,8,4b-8[8:1],52,74,5,{16}2b,1,2,1,38,,25,,
6b,4,7,1b,4,3,8b,8,
2b,1,3,
8b,2b,6b,4b,
4b,5b,,6/2,,71,,8,,{32}73,,,62,,,51,,4,3,2,1,8,7,6,5,{4}4b>4[4:3]*<4[4:3],,,,
