&title=Swan Song
&artist=void(Mournfinale)
&first=0
&des=Dororo vs Renekton
&lv_5=14+
&inote_5=(148)
{1},
{16},,,,,,,,3-5[8:1]/6-4[8:1],,,,,,,,
{16}8,,7,5,,2,4,,{48}8,7,6,{16},,{48}2,3,4,{16},,1,,
{24}2,8,2,8,2,8,2,8,2,8,2,8,{16}3,7,4,6,2,8,3,7,
{16}2h[4:1],,,,{24}7,6,5,{16}4h[4:1],,,,5,4,{12}6,8,2,
{32}6,5h[32:7],{16},,,{32}2,3h[32:7],{16},,,{32}8,7h[32:7],{16},,,{32}1,82,{16},,,
{16}3,4,3,4,2,5,2,5,1,6,8,7,1,2,3,4,
{16}6,5,6,5,7,4,7,4,8,3,1,2,8,7,6,5,
{16}3h[16:3]/4,,2,2h[16:3],,,1,,6h[16:3]/5,,7,7h[16:3],,,8,,
{16}2,4,3,5,4,6,{32}8b,1b,2b,3b,{8}4b,,{16}2,6,3,5,
{16}4h[2:1],,,3,3h[4:1],,,,,,8,2,7,3,6,4,
{16}5h[2:1],,,6,6h[4:1],,,,,,47,,,,8,8,
{16}1h[8:1],,4,1,,,7h[8:1],,5,7,,,3h[8:1],,4,3,
{16},,5h[8:1],,4,5,3,6,2,7,1,8,{24}2,3,4,8,7,6,
{16}1,,{24}7,6,5,1,2,3,8,,,{16}1h[8:1]/7h[8:1],,,2h[8:1]/6h[8:1],,,35,,
{16}2,4,3h[4:1],5,,,7,5,6h[4:1],4,,,1,8,2,7,
{16}36,,{24}4,5,4,5<4[3:1],4,5,4,5,4,{16}5,,,,,,1,1,
{16}8h[8:1],,2,7h[8:1],,3,64,,1h[8:1],,7,2h[8:1],,6,35,,
{16}2bs6[2:1]/6bz2[2:1],,,,,,,,,,,,,,,,
{24}3,5,4,6,,,2,5,4,6,,,2,5,4,7,,,1,5,4,7,,,
{16}2>1[2:1]/8<1[2:1],,,,,,,,,,,,,,{24}28,37,46,
{16}5s1[2:1],,,,,,,,,,,,5b,,,,
{16}3,4,3,,5/2h[16:3],,,1,3,4,3,,2h[16:3]/6,,,1,
{16}3,4,{24}3,5,2h[48:11],{16}5,,,1,3,4,3,,2h[32:7]/8h[16:3],,,,
{16}6,5,6,,4/7h[16:3],,,8,6,5,6,,7h[16:3]/3,,,8,
{16}6,5,{24}6,4,7h[48:11],{16}4,,,8w4[16:3],6,5,6,,,,,,
{16}3,4,2,,2h[16:3]/5,,,1,2,4,1,,1h[16:3]/5,,,8,
{16}1,4,8,,8h[16:3]/5,,,7,4,8,7,,7,1,,1,
{16}6,5,7,,7h[16:3]/4,,,8,7,5,8,,8h[16:3]/4,,,1,
{16}2q3[8:3]/7p6[8:3],,,,,,,,,,,,{32}2,3,4,5,6,7,8,1,
{16}2-5[16:2]/6-1[8:1],,,,2/6^3[8:1],,,,8-4[8:1],,7,,18,,2,,
{16}34,5,6,7,81,2,3,4,1,8,7,6,5-8[8:1]/4,3,2,1,
{16}8,,,,2,1,3,8,4,7,5,6,4,5,3,4,
{16}2-5[16:2]/5,,3,,12,,6-1[8:1],,7,,65,,2b-7[8:1]*-5[8:1],,,,
{16}2,,,,{24}4,3,2,{16}1^4[8:1],,7,,{24}5,6,7,{16}8^5[8:1],,3,,
{16}2-6[8:1],,1,,6,,{32}8,1,2,3,4-1[8:1],5,6,7,{16}8,,7b/4b,,,,
{16}2,4,3,5,4,6,5,7,8,6,1,7,2,8,3,1,
{16}8pp7[16:4]/4pp3[16:4],,,,,,,,,,,,{32}7,6,5,4,3,2,1,8,
{16}7^4[16:2]/3^8[8:1],,,,7-3[16:2]/3,,,,2-5[8:1],,1,,25,,6,,
{16}87,1,2,3,45,6,7,8,5,4,3,2,1-4[8:1]/8,7,6,5,
{16}4,,,,7,8,6,1,5,2,4,3,5,4,6,5,
{16}7-3[16:2]/4,,6,,87,,2-6[8:1],,3,,12,,7b,,,,
{8}25,25,34,34,8-4[16:2]/7,16,87,7,
{8}74,74,65,65,1-5[16:2]/2,83,12,2,
{16}3,4,2,5,1,6,8,7,2,1,3,8,4,7,5,6,
{16}2,34,,7,56,,1,2^5[16:2]/8^5[16:2],,,,,,,,,
{8}3,4,5,6h[16:4],,5h[16:4],,2h[16:4],
{8},4h[16:4],,5,6,5,4,3,
{8}6,5,4,3h[16:4],,4h[16:4],,7h[16:4],
{8},5h[16:4],,4,{24}6,5,6,5,6,5,6,5,6,5,6,5,
{8}6,7,8,8h[16:4],,4h[16:4],,2h[16:4],
{8},6h[16:4],,4,3,4,5,6,
{8}3,2,1,1h[16:4],,5h[16:4],,6h[16:4],
{8},7h[4:1],,8,1s5[8:1]/8z4[8:1],,,,
{32}8,17,26,35,{16}4,,1h[16:3]/6b,,,4,2,7,4,,2/8h[16:3],,,5,
{16}7,2,{24}8,7,6,{16}1h[16:3]/5,,,4,2,7,4,,6/5>6[4:1],47,,1,
{16}1b,,,,2h[16:3],,,4,3,8,5,,7h[16:3]/1,,,5,
{16}6,1,{24}7,6,5,{16}2h[16:3]/4,,,4,3,8,5,,1h[16:1],,1h[16:1],,
{32}1,82,73,64,{16}5,,8h[16:3]/3b,,,5,7,2,5,,7/1h[16:3],,,4,
{16}2,7,{24}1,2,3,{16}8h[16:3]/4,,,5,7,2,5,,3/4<3[4:1],52,,8,
{16}8b,,,,7h[16:3],,,5,6,8,4,,2h[16:3]/1-5[8:1],,,4h[16:13],
{16},,,,,,,,,,,,{24}6,7,8,1,2,3,
{16}5bpp8[2:1]/4bqq1[2:1],,,,,,,,,,,,,,,,
{16}18,,{32}2,4,{16}2,,{32}7,5,{16}7,,2,1,2,8,2,7,2,6,
{16}1-4[8:1]/5-8[8:1],,,,1b/5b<4[4:1],,,,7,,,,{24}8,7,6,1,2,3,
{16}45,,7,8,6,,2,1,3^6[8:1],4,2,5h[16:5],,,,,
{32}8b-5[8:1],1,2,3,{16}4,,8,,3,3,4,2,6,,{24}7,6,5,3,2,1,
{16}7h[8:1]/8h[8:1],,,4h[8:1]/6h[8:1],,,38,,6,4,5,4,3,4,2,4,
{32}1b-4[8:1],8,7,6,{16}5,,1,,6,6,5,7,3,,{24}2,3,4,6,7,8,
{16}1h[16:1],5h[16:1],8h[16:1],4h[16:1],7-2[8:1],3-6[16:1],6h[16:1],2h[16:1],,,,,{32}15,48,37,26,15,,,,
{16}2-5[8:1],5,3,4,2,,8-4[8:1],4,7,5,8,,{24}1,2,3,5,6,7,
{16}5h[8:1]/8h[8:1],,,2h[8:1]/4h[8:1],,,7h[8:1]/8,,5-8[8:1],47,,3,25,,1,1,
{16}7-4[8:1],4,6,5,7,,1-5[8:1],5,2,4,1,,{24}8,7,6,4,3,2,
{16}1h[8:1]/5h[8:1],,,3h[8:1]/7h[8:1],,,2,4,3,7,5,6,2,1,3,8,
{16}4-8[8:1],4,5,2,4,,1-5[8:1],1,8,3,1,,{24}2,3,4,6,7,8,
{16}2,2,8,4,4,6,8,8,7,5,6,4,5,3,4,2,
{16}5-1[8:1],5,4,7,5,,8-4[8:1],8,1,6,8,,{24}7,6,5,8,7,6,
{16}1b,1,,2b/8b,28,,3bV16[16:3]/7bV52[16:3],3h[16:1]/7h[16:1],,,,,,,,,
{16}1,,2,4,,7,5,,{48}1,2,3,{16},,{48}7,6,5,{16},,8,,
{24}7,1,7,1,7,1,7,1,7,1,7,1,{16}6,2,5,3,7,1,6,2,
{16}7h[4:1],,,,{24}2,3,4,{16}5h[4:1],,,,4,5,{12}3,1,7,
{32}3,4h[32:7],{16},,,{32}7,6h[32:7],{16},,,{32}1,2h[32:7],{16},,,{32}8b,17,{16},,,
{16}3,5,3,5,7,5,7,5,2,4,3,8,1,1,7,8,
{16}6,4,6,4,2,4,2,4,7,5,6,4,5,5,3,4,
{16}25,,46,6h[16:3]/4,,8,8,,47,,35,3h[16:3]/5,,1,1,,
{24}7,6,5,4,3,2,7,6,5,4,35,26,{4}1b/7b,{16}7,3,6,4,
{16}5-1[8:1],,6,6,5,,{24}7,6,5,{16}4/2h[8:1],,7,1,6,2,5,3,
{16}4-8[8:1],,3,3,4,,{24}2,3,4,{16}5/7h[8:1],,8,7,1,6,2,5,
{16}3h[8:1]/4,,8,3,,3,7h[8:1]/4,,8,7,,7,1h[8:1]/6,,4,1,
{16},1,8h[8:1]/2,,3,7,2,8,4,6,3,7,{24}2,3,4,8,7,6,
{16}1,,{24}8,2,8,3,7,3,6,4,6,{16}5h[8:1],,,2h[8:1]/4h[8:1],,,17,,
{16}7,5,6h[4:1],8,,,2,4,3h[4:1],1,,,8,1,7,2,
{16}36,,{24}5,4,5,4q5[3:1],5,4,5,4,5,{16}4b,,,,,,8,8,
{16}1h[8:1],,7,2,2,6,35,,8h[8:1],,2,7,7,3,64,,
{16}4w8[8:1],,{24}71,62,53,4b,,,,,,{16}2,5,3,6,4,7,5,8,
{24}3,1,3,1,3,1,6,8,6,8,6,8,{32}5-1[8:1],4,3,2,1,8,7,6,5,,,,,,,,
{24}7,8,7,{16}6b/1b,5b/2b,4b/3b,,,,{24}1,2,3,7,6,5,2,3,4,8,7,6,
{32}2,3,4,5,6,7,8,1,2,3,4,5,6,7,8,1,{24}5,3,5,3,5,3,6,4,6,4,6,4,
{16}5h[16:8]/6b,,,,,,,,{24}4,5,6,4,5,6,4,5,6,4,5,6,
{16}3qq5[4:3],,,,,,,,,,,,,,,,
{16},,,,,,,,,,,,,,,,
{16},,,,,,,,,,,,,,,,
