&title=ちっちゃな私
&artist=重音テトSV
&first=0
&des=ちっちゃなゆき
&clock_count=4
&lv_5=13
&inote_5=(143){1},
{4}E6,E4,{16}C,,1,,2/8,,,,
{8}3/7h[1:1],,E4,,E6,,E3,,1h[1:1],,E7,,E5,,E1,,
{8}8h[1:1],,E2,,E3,,E4,,4h[8:1],,5h[8:1]/7h[8:1],,6h[8:1],,1h[8:1],,
{16}2/8<5[8:1],,,,
{16}3/8,,,,2q6[8:1],,,,2/4,,,,7-3[8:1],,,,
{16}2/7,,,,1>4[8:1],,,,1/6,,,,5-8[8:1],,,,
{16}3/5,,,,2-6[8:1],,,,1/2,,8,,7h[2:1],,,,
{4},6p4[4:1],A6f,
{16}6h[2:1],,,,5,,4,,3h[1:1],,,,5,,6,,7,,,,,,E5,E6,E7f,,,,2x/4x,,,,
{16}3h[2:1],,,,4,,5,,6h[1:1],,,,4,,3,,2,,,,,,E5,E4,E3f,,,,7x/5x,,,,
{16}6h[8:1],,,,6h[8:1],,,,5h[8:1]/6h[8:1],,,,4h[8:1]/5h[8:1],,,,
{16}3h[2:1]/4,,,,,,A5,A6,A7f,,,,5x/7x<4[4:1],,,,
{8}4,,3,,2>5[4:1],,1,,8z4[4:1],,,{16}E4,E3,E2,,,,
{8}4/5,3,2h[2:1]/4,,5,6,7,,5x/4x,6x,7xh[2:1]/5x,,E5,E4,E3f,,2/8,7,
{8}5/6h[2:1],,E4,E3,E2f,,7<4[8:1]/8>3[8:1],,7/8,,1xv6[8:1]/2xv5[8:1],,1b/2b,,
{4}7<3[4:1],3>7[4:1],7V53[4:1],3V17[4:1],7,
{4}C,,1/8,1>5[4:1],5b<1[4:1]b,1bV35[4:1]b,5bV71[4:1]b,1b,
{8}C,,,8b,8b,1/7,1/7-4[8:1]b,,
{8}3/7,,2-5[8:1]b/8,,2/6,,4/8<5[8:1]b,,
{8}4>1[8:1]b/8,,4/5,,6b/8bx-3[8:1]b,,7b<4[8:1]b/8b,,
{8}8b>3[8:1]b,,5b<8[8:1]b,,4b>1[8:1]b,,8b,,
{8}1bx/7,,2/6bx,,3bx/5,8b,8b,,
{8}8/2-5[8:1]b,,
{8}6/2,,7-4[8:1]b/1,,7/3,,5/1>4[8:1]b,,
{8}5<8[8:1]b/1,,5/4,,3b/1bx-6[8:1]b,,2b>5[8:1]b/1b,,
{8}1b<6[8:1]b,,4b>1[8:1]b,,5b<8[8:1]b,,1b,,
{16}8bx/2,,E8,E7,E6,,Ch[8:1],,8x,,,,8x,,,,1x/7x,,,,1x/7x,,,,1xh[8:1]/7xh[8:1],,,,
{16}2x,,4x,,3x,,5x,,4x/6x,,,,5x/7x,,5x/7x,,
{16}5x/7x,,,,1x/8x,,,,1x/2x,,,,3x/8x,,8xh[8:5],,,,
{8}E4,B4,B5,E6,7x,1bx>4[4:1]/6bx,,8,,8-5[4:1]b,,1,,2-5[8:1]*-6[8:1]b,,
{8}2b,,8w4[8:1],,,,1,,{6}8x,1x/7x,2x/6x,1x,2x/8x,3x/7x,
{8}6bx/4bx,5,3/4,3/4,{16}2,3,4,5,6,7,8,1,
{8}2b-5[8:1]/8,3,2/8-4[8:1],7,1-5[8:1]/8,2,1/7-4[8:1],6,
{8}7/8-3[8:1],,7<4[8:1]/8,,7/8-4[8:1]b,,5b-1[8:1]b/8b,,
{8}3b-6[8:1]b/5b,,3b/8b,,1/7,1/7,2/8,2/8,
{4}A2/E3f/A3/D2/D4,A7/E7f/A6/D6/D8,{8}B1/E1/B8/B4/B5/E5/Cf,,2x/7x,,
{8}7b-4[8:1]/1,6,7/1-5[8:1],2,8-4[8:1]/1,7,8/2-5[8:1],3,
{8}2/1-6[8:1],,2>5[8:1]/1,,2/1-5[8:1]b,,4b-8[8:1]b/1b,,
{8}6b-3[8:1]b/4b,,6b/1b,,2V46[4:1]b/8,,7xV53[4:1],,2x>6[4:1]b,,7x<3[4:1],,2,,
{8}8b-4[8:1]b,,
{8}8b/3-5[8:1],2,3/7-1[8:1],6,2-5[8:1]/7,3,2/8-4[8:1],7,
{8}4>1[8:1]/8,,4/5<8[8:1],,2-6[8:1]b/5,,2b/7b-3[8:1]b,,
{8}1bV35[8:1]/7b,,1/6-2[8:1],,6/8V64[8:1],,1/8,,2b/5b,,4b/7b,,1b/8b,,Cf,,
{8}1b/6-4[8:1],7,6/2-8[8:1],3,7-4[8:1]/2,6,7/1-5[8:1],2,
{8}5<8[8:1]/1,,5/4>1[8:1],,7-3[8:1]b/4,,7b/2b-6[8:1]b,,
{8}8bV64[8:1]/2b,,8/3-7[8:1],,3/1V35[8:1],,8/1,,
{8}4b/7b,6,3/5,{16}3,4,2,,1/5,,1-3[8:1]/5-7[8:1]b,,,,
{16},,,,,,4h[8:1],,7h[2:1],,,,E3,,E7,,Ch[4:1]f,
