&title=アイリス
&artist=wotaku
&first=1.209999
&des=星炬学院文献检索AI
&lv_5=13
&inote_5=(190){4},3<2[8:11],{8},2xh[16:3],,,1xh[16:3],
,,8xh[16:3],,,,,,,{4}7bxh[2:3]/3xqq5[1:1],
{1},{4},{8},{16}4,
6,
4,6,4,6,{8}3-8[8:1],4,4,6-1[8:1],5,5,
3,2h[4:1],,1,4,6,2-5[8:1],7,
{4}2b,{8}7,5,6,3h[4:1]/4-6[8:1],,,,2h[4:1]/3-5[8:1],
,,,1h[4:1]/2-4[8:1],{16},,,,,,8,
1,{8}7-4[8:1],8,8,2-5[8:1],1,1,
7,6h[4:1],,5,8,2,6-1[8:1],3,
{4}6b,{8}3,1,2,7h[4:1]/8-2b[8:1],,,,6h[4:1]/7-1b[8:1],
,,,5h[4:1]/6-8b[8:1],{16},,,,,,4,
5,{8}3-8[8:1],4,5,6-1[8:1],5,4,
3,2h[4:1],,1,4,6,2>5[8:1],7,
{4}2b/8b,{8}7,4,6,3h[4:1]/5-7[8:1],,,,2h[4:1]/4-6[8:1],
,,,1h[4:1]/3-5[8:1],{16},,,,,,8,
1,{8}7-4[8:1],8,1,2-5[8:1],1,8,
7,6h[4:1],,5,8,2,6<1[8:1],3,
{4}6b/4b,{8}3,8,2,7h[4:1]/1-3b[8:1],,,,6h[4:1]/8-2b[8:1],
,,,5h[4:1]/7-1b[8:1],,,,,{4}2,
2,2,
{8}2,6,{4}2,{8}2,7qq5[4:1],{4}2,
2,{8}2,4,{4}3/5,{8}6,4,
{4}5/3,{8}2,3,{4}5pp7[4:1]*qq3[4:1],5,
,6,6,6/4,
6/4,6/4-2[8:1],6,6/1pp3[8:1],
6xpp4[4:3],{8}2,2,{4}3,{8}3,3,
{4}2,1-3[8:1]*-4[8:1],1b-7[8:1]*-6[8:1],1b,
,5,5,5/3,
{8}5,2,{4}5,{8}5,3qq1[4:1],{4}5,
5,{8}5,4,{4}B7/B6/E7,{8}4,5,
{4}B2/B3/E3,8,8>3[8:1]*<5[8:1],8,
,1,1,1/7,
1/7,1-4[8:1],5q1[8:1]*v8[8:1],5,
2xV86[0.3158##0.3158],{16}6>3[0.3158##0.3158],,,,{4}3>8[4:1],8<5[4:1],
5>8b[2:1],B7/E7/B6,{16},,,,,,7x,6x,
{8}5x,{16}3x,4x,{4}5xh[4:3],{8},4h[8:5],,,,,{4}3h[4:3],
{8},2h[8:5],,,,,{4}1h[4:3],
{8},8h[8:5],,,,,{4}7h[8:3],
{8},6h[8:1],{16}B5,B4,B3,B2,
B1,B8,B7,B6,{4}5xh[8:3],{8},4xh[8:3],,,3xh[8:3],
,,2xh[8:3],,,{4}1xh[4:1],
8x,8-6-4[8:3],{8},4-2-8[8:3],,,8-6>4b[8:3],
,,4-2<5b[2:1],,,{4}1,
2,{8}4/3,4/3,,5/7,,4/2,
,3bqq4[4:1]/7bqq8[4:1],,,,,,,{4}3-8[8:1]/7-4[8:1],
3b/7b/Cf,{8}2/6,6/2-4-8[8:3],,2/7-5[8:1],
,7,,1v2-4[8:3],,6-8b[8:1],,,,5,
{4}5-1[8:1],{8}7,7-4[8:1],,2>1[16:7],
,5,{4}6h[#0.6315804],{16},,2x,3x,{4}4bxv1[8:1],
,2/6,{8}6xh[8:1],5x,3xh[8:1],4x,
7xh[8:1],5x,2xh[#0.1578903],4x,6xh[8:1],7x,3xh[8:1],2x,
8xh[8:1],6x,{4}2xh[8:7],{8},4,{4}4bq1[8:1],
{8},,,8/3>8[8:1],{24},,,8bx/3bx,7x,6x,{8}5x,5/1,
1x-4[8:1]/5x-8[8:1],2x/6x,{4}1bx/5bx,{8}7/3,3/7-5-1[8:3],,7/2-4[8:1],
,2,,8v7<5[8:3],,3>1b[8:1],,,,4,
{4}4-8[8:1],{8}2,2-5[8:1],,7<8[16:7],
,4,{4}3h[2:1],{16},,7bx,6bx,{4}5bxv8b[8:1],
,7/3,{8}6bxh[8:1],1x,3bxh[8:1],8x,
5bxh[8:1],7x,4bxh[#0.1578979],2x,7bxh[8:1],5x,2bxh[8:1],4x,
7bx/1x,6bx/8x,{4}7bxh[1:1]/1xh[4:3],,,,3x-8[8:1],
,6x-1[8:1]/5x-1[8:1],
{32},,,,,,,,E3f/E8f/2bxq4<4[4:7]/8bxp6<2[2:3],B3/B7,B4/B6,E5/E6,{1},{4},,,{16},,{4}8z4[2:1],
,,1>1-3-5-7-1b[2:5],
B3,{8},B5,,,{4}B7f,
1xv8-6[2:1],,,,5xv4-2[2:1],
,,,1x-3-7-5[2:1],
,,,8x<8-6-4-2-8b[2:5],
{8},B2/B3,,,{4}B5/B6f,
8xv1-3[2:1],,,,4xv5-7[2:1],
,,,8x-6-2-4[2:1],
,,5b,
6b,{8},7bpp1<5[1:1],,,{1}3bh[4:3]/Cf,
{4}3b,2b,{8},1bv7-1-3-5[4:5],,,{1}Cf/6b-8-2-4-6b[8:7],
{12},,,7b,5,6,3b,5,4,6b,2,4,
3b,7,5,6,{24},,,,{8}6/5,,{4}6/4,
{8}6,5,{4}7b/4b,6/3,6/2,
{8}5,4,{4}3,3/4,5/3,
{8}3,4,{4}5b/2b,3/6,3/7,
{8}8,1,{4}2,{8}2/1,,{4}2/8,
{8}2,1,{4}8b/3b,2/8,2/7,
{8}1,8,{4}7,7/8,7/1,
{8}7,8,{4}1b/6b,7/2,7/3,
{8}6,5,{4}3/4-6[8:1],3/4,3bx/7bxh[4:1],
{8}3,4,{4}6/5-3[8:1],5/6,6bx/2bxh[4:1],
{8}6,5/1,{4}4/8,7-2[8:1]/3-6[8:1],7bx/3bx,
{8}3/7,4/8,{4}5/1,2-7[8:1]/6-3[8:1],2bx/6bx,
{8}2/6,4/8,1,{16}7,8,7,6,{8}7h[4:1],,,6/2,
{16}3,4,3,2,{8}3h[8:1],,2/8,6bx/5bx,7/1,
{4}4bx/3bx,8b/Cf,{8},,,,,6,
5x/4x,3,2x/1x,8,6x/7xp1b[8:1],5,
4x-8[8:1],3x,{4}Cf/4qq2b[2:7]*pp6b[2:7],
E
