&title=MIRINAE (Original Mix)
&artist=Zekk; TAK
&first=0.01
&des_1=末路
&des_2=末路
&des_3=末路
&des_4=末路
&des_5=末路
&lv_5=14
&des_6=末路
&des_7=末路
&des=末路
&inote_5=(180){8},,,,,,,,
{8},,,,,,Ch[8:1],,
E3/E7,,2/8,,5h[4:1],,3,5h[4:1],,4,5h[4:1],,2,2,2/8h[4:1],,
C,,7/1,,4h[4:1],,6,4h[4:1],,5,4h[4:1],,7,7,7/1h[4:1],,
C,,2/8,,5h[4:1],,3,4h[4:1],,6,5h[4:1],,2,2,2/8h[4:1],,
C,,1/7,,2V46[8:2],,8,,7-3[16:2],,1s5[16:5],,1,,,,
7/Ch[8:2],,7h[8:14],,E2,,,,E8,,,E6,,,5,5,
5-2-4-8[8:10],,,,8,,,,7,,,6,,5,5,1,
1/Ch[8:2],,1h[8:14],,E8,,,,E6,,,E4,,,2,2,
2-5[8:1],,8,,7V53[8:2],,7/1,,2-6[8:1],,8z4[16:5]/2,,1/8,,,,
{16}E6/E2`B1/B2`C,,,,47,,6,6,5v8[8:1],,4,,5/3,,3,,
2h[4:1],,1pp4[8:3],,8,,7h[4:1],,,,,,5<8[8:1],,,,
{24}8x/5,1x,2x,{16}3x,,6h[4:1],,5,,3h[4:1],,4,,7h[4:1],,6,,
2h[4:1],,3,,1s5[16:5],,,,1/7,,,,,,,,
{16}E4/E8`B8/B7`C,,,,5/2,,3,3,4>1[8:1],,5,,4/6,,6,,
7h[4:1],,8p5[8:3],,1,,2h[4:1],,,,,,3>8[8:1],,,,
{24}8x/3,7x,6x,{16}5x,,2h[8:1],,3h[8:1],,5h[8:1],,6h[8:1],,Ch[8:1],,4h[8:1],,
8h[8:1],,Ch[8:1],,2-6-2[8:2],,6,,2w6[8:1],,,,,,,,
1b-4[8:12],,,,8h[8:1],,,,8h[8:1],,,,8h[8:1],,,,
7h[8:1],,,,7h[8:1],,,,7h[8:1],,,,6h[8:1],,,,
5-8[8:12]b/2h[8:1],,,,2h[8:1],,,,2h[8:1],,,,2h[8:1],,,,
3h[8:1],,,,3h[8:1],,,,4h[8:1],,,,4h[8:1],,,,
2/5,,3,4,3,4,3,,4/7,,6,5,6,5,6,,
1/5,,2,4,3,4,2,1,2h[8:1],,7,5,6,5,7,8,
7h[8:1],,1,,1/2,,1,,1/7,,1,,1/3,,1,,
1,6,1,,1,4,1,,7p3[8:1],,8,,1w5[8:1]/7,,,,
1b,,,,E2,B2,E1,B8,E3,B3,E8,B7,A3,E4,A7,E7,
A4,D5,A6,D6,3x,4x,7x,6x,2x,3x,8x,7x,1b-5[8:1],,,,
1b/8,,,,6,4,6,4,7,5,7,5,8h[8:1],,5-7[8:1],,
,,5/4,,4,3,2,1,6,5,4,3,8b-4[8:1],,,,
8b/2,,,,3,,5,,6-2[8:1]/4,,7,,6/5-1[8:1],,4,,
5/8-4-6[8:2],,7,,8/2,,3-7[8:1],,,,3,,1b-5[8:1],,,,
1b/8,,,,6,4,6,4,7,5,7,5,8h[8:1],,4>2[8:1],,
,,4/5,,5,6,7,8,3,4,5,6,1b-5[8:1],,,,
1b-3[8:1]/8-3[8:1],,,,1-6[8:1]/8-6[8:1],,,,1>3pp5<7[8:4]/8,,,,1,,8,,
,,,,8bw4[8:1],,,,,,,,8b-4[8:1],,,,
8b/1,,,,3,3,5,5,2,2,4,4,1h[8:1],,4-2[8:1],,
,,4/5,,5,6,7,8,3/1,4,5,6,1b-5[8:1],,,,
1b/7,,,,6,,4,,3>8[8:1]/5,,2,,3/4<7[8:1],,5,,
4/1q5-2[8:2],,2,,1/8,,7p3[8:1],,,,7,,1b-5[8:1],,,,
1b/4>5[8:4],,,,,,,,,,,,,,8-6[8:1],,
,,8/1,,1,2,3,4,7/5,8,1,2,5b-1[8:1],,,,
5b-7[8:1]*-8[8:1]/6,,,,5-2[8:1]*-3[8:1],,,,5-7v1-3[8:4],,,,5,,4,,
,,,
,8x,,,,1b/5,,3b/7,,,,,,
2-4-7-1-5[8:12]/6h[8:14],,,,,,,,,,,,,,,,
,,,,,,,,,,,,,,,,
3/7,,,,E2,,E6,,E3,,E7,,E4,,E8,,
E5,,C,,E1,,,,{24}1,8,1,8,1,8,{16}2,7,3,6,
4,,4,,5/6,,7,,3/4,,2,,4/6,,8,,
{24}1/5,,,2,3,4,5h[8:1],,,3,4,5,6h[8:1],,,4,5,6,7pp4[8:3],8,1,2,3,4,
{8}5bh[8:2]/A7f,,,,2s6[1.34##0.416]/6s2[1.34##0.416],,2h[8:4]/6h[8:4],,,,,,,,,,
3/Ch[8:2],,1x,,1/8h[8:2],1,2,1/7h[8:2],1,2,1/6,2,1/8-3[8:1],1,1<5[8:1]b,,
2h[8:2],,4x,,4/5h[8:2],4
,3,4/7h[8:2],4,3,4/6,3,4/7-4[8:1],4,4<8[8:1]b,,
3h[8:2],,1x,,1/8h[8:2],2,2,1/7h[8:2],2,2,1-5[8:1]/8,1,2-6[8:1],2,1>7[16:4]b,,
1h[8:2],,,,3V17[8:2],3,5,5,6V82[8:2],6,4,4,4h[8:2],,8qq4[8:4],8,
2h[8:4],,,,,,6<2<6[8:4],6,4h[8:1],,3p5[8:2],,3,,4>5[8:4],4,
1h[8:4],,,,,,3<7<3[8:4],3,1h[8:1],,8p2[8:2],,8,,1<2[8:4],1,
5,5h[8:3],,,,,6<3>6[8:4],6,5h[8:1],,4q5[8:2],,4,,7<8p5[8:9]b,7,
3,3h[8:3],,,,,,,4xw8[8:1]b,,,,2h[8:1],6h[8:1],C,,
{16}8b/1b,,,,3x,4x,6x,5x,4x/2-6[8:1]b*-7[8:1],,2,,2,,,,
5-2[8:1]*-3v1[8:1]b,,5,,5,,,,8<5[8:1]b*-5[8:1],,8,,8>3[8:1]*-3[8:1]b,,,,
8,,,,6x,5x,3x,4x,5x/6-3[8:1]b*<1[8:1],,6,,6,,,,
2h[8:1],,,4h[8:1]/3h[8:1],,,2/5,1/6,7-3[8:1]/8-4[8:1]b,,,,7<4[8:1]b/8>3[8:1],,,,
7/8,,,,E3,B3,B6,E7,2-4-7[16:4],,2,,7x-5-2[16:4],,,,
2x-4-8[16:4],,,,8x,,,,7,,5/6,,1,,3/4,,
5-2[8:1]/4,,6,,7,,8,,1v6[8:1],,2,,3>3[2:1],,4,,
5bx/A3f,,,,3!<3[2:1]b,,,,A3f/7bx,,,,,,,,
1x<3[4:1],,,,1/2,,,,8x>6[4:1],,,,7/8,,,,
1x<3[4:1],,,,1/2,,,,8x>3[8:1]*-6[8:1],,,,8-4[8:1],,,,
8/5x>7[4:1]b,,,,6/5,,,,4x<2[4:1]b,,,,4/3,,,,
5x>7[4:1]b,,,,6/5,,,,4x<7[8:1]*>1[8:1],,,,4bw8[8:1],,,,
4b,,,,A6,E6,E4,A3,6-8-3[16:4],,6,,3x-1-6[16:4],,,,
6x-8-4[16:4],,,,4x,,,,3,,1/2,,5,,7/8,,
1v6[8:1]/6,,2,,3,,4,,5v2[8:1],,6,,7,,8,,
3,4,3,,6,5,6,,2/4,,3,,5/8,,7,,
{16}4h[4:1]/6b,,,,3h[4:1],,,,2h[4:1],,,,1h[4:1],,,,8>3-5[8:2],,,,7,,7h[4:1],,,,,,4,6,3,5,
2h[8:3],,,,3,,3-5[8:1],,,,8/3,,,,{64}E8,E7,4h[32:7],,{16},
,,5q3[4:1],,6,,7h[4:1],,,,,,6,4,7,5,
8p4[4:1],,,,3,,2h[4:1],,,,1,,,,{64}B3,B4,7h[32:11],,{16},
,,6,,6-4[8:1],,,,2/6,,,,3,5,2,4,
1q5[4:1],,,,7,,6h[4:1],,,,8,,,,{64}B5,B4,2h[32:11],,{16},
,,3s7[8:3],,4-8[4:1],,,,,,,,,,,,
2/5,,3,4,,4,3,,2/5,,4,3,,2/5,,,
4/7,,6,5,,5,6,,4/7,,5,6,4,5,3,4,
2h[4:1],,{24}1,8,7,{16}6,,6,,1/6,,3,4,,5,4,,
6pp4[8:3]/7h[8:1],,,4h[8:1],,,2h[8:3],,,,,,5,6,7,8,
3-6[8:1]/1h[4:1],,,,3,,7-4[8:1],,,,7/1,,,,{64}A2,D3,5h[32:11],,{16},
,,4,,4-6v7[4:1],,,,3/4,,,,4,3,2,1,
6-3[8:1]/8h[4:1],,,,6,,1>4[8:1],,,,1/7,,,,{64}B7,C,5h[32:11],,{16},
{8},3<3[8:5]b,4p8[8:2],,,,,,
E6/E7/A6f,,,,,,,,
,,,,,,8,8,
B3/B4/8h[8:13],,,,,,,,
,,,,,3,3,7,
7-5-2-8-4[8:12]/B1/B2,,,,,,,,
,,,,,,,,
2/6,,8,,7V53[8:2],,1/7,,2V46[8:2],,2/8,,7h[8:2],,8,8,
{8}1>7[8:11],,E2,,E3,,E4,,E5,,E6,,E7,8,1,2,
1/3h[4:1],,8-6-4-2[16:17],8,B1,,C,,B5,,E7,,E8,1,8,7,
6/1,1,1,2,3/4,4,4,5,6/7,7,7,8,{24}1h[8:2],,,E8,B7,B6,E6,,,E2,B2,B3,
{16}E4/5,,5,,5/4,,3,4,2,,2,,3/5,,6,5,8,,8,,1/7,,{32}1,2,3,4,5/6,,,,8,7,6,5,4/3,,,,2,,1,,
{16}3,4,2,5,1,6,8,7,5,6,4,7,3<2[2:1],8,2,1,3b,,,,,,,,,,5/6,,4/5,,3/4,,
{8}2b-5[8:1]/3,,7>1[8:1]/2-6[8:1],,7-5[8:1]/2,,4-1[8:1]/7,3,
4-7[8:1]/6,,4-1[8:1]/2,,4/6,,2-5[8:1]/5-8[8:1],3/6,
2b-7[8:1]/5,,2v5[8:1]/6-1[8:1],,2>4[8:1]/6,,8-5[8:1]/2,
7,
8-3[8:1]/2,,6/8-5[8:1],,2/8,,1>4[8:1]/6,5/8<5[8:1],
1b-5[8:1],8,1-7[8:1]*-3[8:1],,1-5[8:1],,1>4[8:1],7,
1<6[8:1]/7,,1>4[8:1]/3,,1/7,,8<5[8:1],4>1[8:1],
8b-4[8:1],4,8-2-4-6-8-4[8:8],,,,,,
8x-2-4[4:1]*-4[8:2]b,,,,,6/5,1/8,2/4,
{16}3b,5,4,6,8,7,8,7,1,5,4,6,8,7,8,7,
1b-3[8:1],,4,,1b-5[8:1]/6,,6,,1b-3[8:1]/4,,4,,1b/6,,7,,
8b,4,1,5,8,4,7,3,6,2,6,2,5,1,5,1,
5b-7[8:1],,8,,5b-1[8:1]/2,,2,,5b-7[8:1]/8,,8,,5b/2,,3,,
4bv1[8:1]/8xv5[8:1],,,,4/8,,,,6,4,5,3,1,2,1,2,
8b-6[8:1],,4,,8b-4[8:1]/3,,2,,8b-6[8:1]/4,,5,,8b/3,,2,,
1bq6>1[8:5]/5xq2<5[8:5]b,,,,,,,,,,,,,,,,
{32}8,7,6,5,4,3,2,1,{16}8bh[32:8],,,,4,,5/1,,6/2,,7/3,,
{8}4/8-6[8:1],,1-5[8:1]/8,,2-4[8:1]/1,,2/6x,,8-4[8:1]/5,7,8/3-7[8:1],2,3/5-8[8:1],6,5x/1,,
2-8[8:1]/6,,2/7-3[8:1],,4-6[8:1]/7,,4x/2,2,1/7-1[8:1],,7/2-6[8:1],3,2/5-3[8:1],,5x/7,,
8-4[8:1]/1,,8/3-1[8:1],,3/7-5[8:1],,4/7x,3,2/1-4[8:1],,1/7-3[8:1],,7/5-8[8:1]*-2[8:1],,5x,,
1h[8:1]/6h[8:1]
,,8h[8:1]/3h[8:1],,{16}2h[8:1]/C,,,7h[8:1]/C,,,4/C,,
8h[8:1]/C,,,3h[8:1]/C,,,6/C,,1b/Cf,,,,,,,,
{8}4/1-3[8:1],,8-4[8:1]/1,,7-5[8:1]/8,,7/3x,,1-5[8:1]/4,2,1/6-2[8:1],7,6/4-1[8:1],3,4x/8,,
7-1[8:1]/3,,7/2-6[8:1],,5-3[8:1]/2,,5x/7,7,
{16}4h[8:1]/8h[8:1],,,5h[8:1]/1h[8:1],,,2/6,,2b<7[8:1]/6b>3[8:1],,,,,,,,
{8}2-5[8:1]/6v1[8:1],2/6,2b/6b,,8-5[8:1],4-1[8:1],8b,4b,6,2/6,{16}4b,5b,3b,4b,{8}1-5[8:1],8,1b/7,7,
6bqq4qq2qq8[8:6]b,,4,,2,,8,,1bh[4:1],,{32},2/8,3/7,4/6,{8}5,3/7,3/7,1-4[8:1]/5v8[8:1],,
{16}1b/5b,,,,{24}7/3x>8[8:1],6,5,{16}4,,3x/7h[4:1],,,,,,{24}7/3x>8[8:1],6,5,
{16}4,,3x/7,,,,7,,{24}7/1,6/2,5/3,{16}4,,6bv1[8:1]/2bv5[8:1],,,,
6b/2b,,,,{24}2/6x<1[8:1],3,4,{16}5,,6x/2h[4:1],,,,,,{24}2/6x<1[8:1],3,4,
{16}5,,6x/2,,,,2,,{24}2/8,3/7,4/6,{16}5,,3bv6[8:1]/7bv2[8:1],,,,
7b/3b,,,,{24}3/7x>2[8:1],4,5,{16}6,,7x/3h[4:1],,,,,,{24}2/6x>3[8:1],1,8,
{16}7,,6x/2,,,,1,,{24}8/1,7/2,6/3,{16}5/4,,2b-7[8:1]/6b-3[8:1],,,,
2b/6b,,,,{24}6x<1[8:1]/2,3,4,{16}5,,2/6x,,,,3qq5[8:4]b,,7qq1[8:3],,
,,,,,,,,,,,,8b-5[8:1]/4bv1[8:1],,,,
8b/4b,,,,{24}2,4,3,5,,,3,5,4,{16}6h[8:1],,,,{24}7,5,6,
4,,,6,4,5,3h[8:1],,,4,,,2,4,2,{16}4,,1b-4[8:1]/5bv8[8:1],,,,
1b/5b,,,,{24}7,5,6,4,,,6,4,5,{16}3h[8:1],,,,{24}2,8,2,
8,,,1,7,1,{16}7pp5[8:4]b,,2,,2/7b,,,,,,,,
{12}4b,,,,,,7,,B3,B6,,2,
,,8,,,3,E6,,7,B4,,2<2-8-6-4-2[0.667##1.78]*<2-8-6-4-2[0.667##1.78],
{12}C,,1<1-7-5-3[12:15],{16},,,,,,,,,,,,
,,,,,,,,,,,,7,,7,,
7/Ch[8:2],,,,,,8,8,1>5[8:2],,,,1/7,,,,
6h[8:2],,,,3,,2h[8:3],,,,,,8,,8,,
7h[8:4]/1-5[8:1],,,,1,,,,2h[8:4],,,3,,,3,,
6h[8:4],,5,,5,,,,4h[8:4],,,8,,,8,,
Ch[8:2],,,,,,1,1,8<4[8:2],,,,8/2,,,,
3h[8:2],,,,6,,7h[8:3],,,,,,1,,1,,
8h[8:4]/1-5[8:1],,,,1,,,,2V46[8:2],,,6,,,7,,
7-3[16:2],,1,,1s5[16:5],,,,1/8,,,,,,,,
{8}7-2[8:14],,,,E6,B4,B5,E4,
,,,,,,,,
8h[8:2],,,,7h[8:2],,,,
6h[8:2],,,,5h[8:2],,,,
3-6[8:14],,,,E2,B8,B1,E8,
,,,,,,,,
,,1,,7h[8:1],,8,,
2h[8:1],,1s5[16:5],,,,,,
E
