&title=Lil' Goldfish
&artist=Nao'ymt
&wholebpm=112
&first=0.015
&des=1就
&lv_1=1
&lv_2=3
&lv_3=5
&lv_4=7
&lv_5=10+
&inote_1=
(112){2}
,,,,
6h[2:1],,5h[2:1],,4h[2:1],,3h[2:1],,
2h[2:1],,1h[2:1],,8h[2:1],,7h[2:1],,
1,1,2,2,3,3,4,4,5,5,6,6,7,7,8h[2:1],,
2h[2:1],,2h[2:1],,2h[2:1],,4,4,
6h[2:1],,6h[2:1],,7,7,1,1b,
1-5[4:1],,2-6[4:1],,8-4[4:1],,7-3[4:1],,
6,6,4,4,2,2,8,8,
2h[2:1],,4h[2:1],,6h[2:1],,8h[2:1],,
1,1,7,7,3,3,5b,,,,
E
&inote_2=
(112){2}
,,,,
2h[2:1],,1h[2:1],,8h[2:1],,7h[2:1],,
6h[2:1],,5h[2:1],,4h[2:1],,3h[2:1],,
2h[2:1],,1h[2:1],,8h[2:1],,7h[2:1],,
6h[2:1],,5h[2:1],,4h[2:1],,3h[2:1],,
4h[2:1]/5h[2:1],,4h[2:1]/5h[2:1],,
4h[2:1]/5h[2:1],,26,26,
1h[2:1]/8h[2:1],,1h[2:1]/8h[2:1],,7,7,3,3b,
1v4[4:1],,7v2[4:1],,2v7[4:1],,8v5[4:1],,
4,5,3,6,2,7,1,8,
1h[2:1],,7h[2:1],,3h[2:1],,5h[2:1],,
4,4,6,6,2,2,8b,,,,
E
&inote_3=
(112){2},,,,
6h[2:1],3,5h[2:1],4,4h[2:1],5,3h[2:1],6,
2h[2:1],8,1h[2:1],7,8h[2:1],1,7h[2:1],2,
2h[2:1],8,1h[2:1],7,8h[2:1],2,7h[2:1],1,
6h[2:1],4,5h[2:1],3,4h[2:1],5,3h[2:1],6,
1p8[2:1],,3p2[2:1],,5p4[2:1],,73,26,
3q5[2:1],,5q7[2:1],,1,7,3,5b,
{4}1,8,1,,7,2,7,,3,6,3,,5,4,5,,
3,6,3,,7,1,7,,2,8,2,,8,1,8,,
5,4,5,,3,6,3,,7,1,7,,2,8,2,,
8,1,8,,2,7,2,,6,3,6,,5,,5b,,,,,,
E
&inote_4=
(112){4},,,,
{8}1,,1,,6,7,8,,{4}
8h[2:1],1,2,8,1h[2:1],8,7,1,
5h[2:1],4,3,5,4h[2:1],5,6,4,
7h[2:1],1,2,8,2h[2:1],8,7,1,
6h[2:1],4,3,5,3h[2:1],5,6,4,
8h[2:1],1-4[8:1],,8,1h[2:1],8-5[8:1],,1,
5h[2:1],4-1[8:1],,5,4h[2:1],5-8[8:1],,4,
7h[2:1],1q5[8:1],,7,2h[2:1],8p4[8:1],,2,
6h[2:1],4>8[8:1],,6,7h[2:1],,1,1,
8<4[8:1],,1>5[8:1],,8z4[8:1],,1s5[8:1],,
8^6[8:1]/4^2[8:1],,7^5[8:1]/3^1[8:1],,
8^6[8:1]/4^2[8:1],,{8}7,3,5,1,{4}
5>1[4:1],,4<8[4:1],,5p7[4:1],,4q2[4:1],,
8,,7,7,1h[4:1],,8b,8b,
8q1[4:1],2,,{8}3,5,{4}4q5[4:1],6,,{8}6,1,{4}
7-4[8:1],1,2-5[8:1],8,7p5[4:1],3,,6,
2q3[4:1],8,,{8}8,1,{4}7p6[4:1],1,,1,{8}
2,8,3,7,4,6,5,,{4}7-3[8:1],2,{8}1,2,6,7,{4}
8q1[4:1],2,,{8}3,5,{4}4q5[4:1],6,,{8}6,1,{4}
7-4[8:1],1,2-5[8:1],8,7p5[4:1],3,,6,
2q5[4:1]/1q4[4:1],12,,,{8}7,6,5,4,3,,1,8,{4}
3q6[4:1],8,,,
45,36,27,{8}8,1,
8h[8:3],,,,1h[8:3]/7h[8:3],,,,{1}
2>6[1:1]/6<2[1:1],,,
E
&inote_5=
(112){4}
,,,,
{32}8,1,,,,,,,{8}8,,3,2,1,,
2h[2:1]/8-6[8:1],,8-4[8:1],,,,1,8,
7h[2:1]/1-3[8:1],1,1-5[8:1],,,,8,1,
8,8,8^5[8:1],8,8^3[8:1],8,8<2[4:1],,
8h[4:1],,,,1b,,1,,
1q5[8:1],7<3[6:1],1p1[4:1],7,,,6,5,
8p4[8:1],2>6[6:1],8q8[4:1],2,,,4,,
3h[8:4],4,5,6,7h[2:1],8,1,,
1h[4:1],,,,7,1,8,2,
1h[4:1]/8p3[8:1],,8q5[8:1],,,,8,1,
8h[4:1]/1q6[8:1],1,1p4[8:1],,,,3,5,
4,,4^1[8:1],4,4^7[8:1],4,4>6[4:1],,
4h[4:1],,,,6,4,8,2,
7v6[6:1]/3v4[6:1],,7V13[8:3]/3V17[8:3],,,,,,
4,3,4,3,3,,5,4,
5p8[8:1]/3q8[8:1],,,,6p1[8:1]/4q1[8:1],,,,
8h[4:1],,,,5,6,7,{32},,,1,{8}
2^4[8:1],,,{32},,,1,{8}
2^5[8:1],,,{32},,,1,{8}
2^4[8:1],,,{32},,,1,{8}
2^5[8:1],,,{32},,,1,{8}
2^4[8:1],,,{32},,,2,{8}
3^5[8:1],,,{32},,,1,{8}
2^4[8:1],,,,8,1,7,{32}6,,,8,{8}
7^5[8:1],,,{32},,,8,{8}7^4[8:1],,,{32},,,8,{8}
7^5[8:1],,,{32},,,8,{8}7^4[8:1],,,1,
1,,4,5,3,6,2,7,
2h[2:1]/8-4[8:1],8,8-6[8:1],,,4,3,2,
2p5[8:1]/8,,5p8[8:1]/2,,,,8,1,
7q4[8:1]/6,5,4q1[8:1]/7,,,,3,5,
4^6[8:1],6^8[8:1],8^2[8:1],2^4[8:1],
,,8p3[4:1]*q5[4:1],,
,,,,2h[4:1],,8h[4:1],,
1-6[8:1],6-4[8:1],1-4[8:1],,,,2,2,
8-3[8:1],3-5[8:1],8-5[8:1],,8>5[8:1],,,,
1,1,1^4[8:1],1,1^6[8:1],1,1>8[4:1],,
1h[4:1],,,,8,2,6,4,
8h[4:1]/1q6[8:1],1,1p4[8:1],,,,1,8,
1h[4:1]/8p3[8:1],8,8q5[8:1],,,,6,4,
5,,5^8[8:1],5,5^2[8:1],5,5<4[4:1],,
5h[4:1],,,,1,7,3,5,
2v3[6:1]/6v5[6:1],,6V82[8:3]/2V86[8:3],,,,,,
5,6,5,6,6,,4,3,
2qq8[8:1]/4q8[8:1],,,,7pp1[8:1]/5p1[8:1],,,,
65,,56,,3,2,1,,{1}7b<1[1:2]/3b>5[1:2],,,,,,,
E
&amsg_time=
&amsg_content=
