&title=修羅場 adult ver.
&artist=東京事変
&first=0.17
&des=JPOP就是比KPOP牛逼
&des_5=JPOP就是比KPOP牛逼
&lv_5=14
&inote_5=(120){8}2/3,2/3,1b/8b,{16}7,5,6,5,,,4-2[8:1],5,3,5,
4,6,{8}6,,5/7h[8:1],{16},5/7h[8:1],,,{4}6/7h[4:1],
{8}3,1/8,{16},,2,4,3,4,,,5-7[8:1],4,6,4,
5,3,{8}3,,8/2h[8:1],{16},8/2h[8:1],,,{4}3/2h[4:1],
{8}1,3/8,4/7,{16}6,5,7,5,,,4-1[8:1],5,3,6,
4,7,{8}7,,8/6h[8:1],{16},8/6h[8:1],,,{4}7/6h[4:1],
{8}4,1/2,{16},,3,4,2,4,,,5-1[8:1],4,6,3,
5,2,{8}2q6[8:1],,2b/8b<1[4:1],,4h[4:1],,,3/7,
1b/5b,,8/6h[16:3],{16},1,{8}5,{4}2h[4:1]/4-7[8:1],
{8},3,{16}8,1,{8}7h[16:3],{16},2,{8}6,3/5<8[8:1],{16}4,4,
{8}5,2,,3h[16:3],{16},8,{8}4,{4}7h[4:1]/5-2[8:1],
{8},6,{16}1,8,{8}2h[16:3],{16},7,{8}3,{16}4>1[8:1],6,4pp6[8:1],5,
{8}4p8[8:1],,,6h[16:3],{16},4,{8}8,{4}3h[4:1]/1-6[8:1],
{8},2,{16}5,4,{8}6h[16:3],{16},3,{8}7,2/8<5[8:1],{16}1,1,
{8}8,3,6/2-6[8:1],{16}1,8,{8}2,7,5/8<5[8:1],{16}1,2,
{8}8,3,2/5,{16}6,6,{8}8,4/5,{16}2,2,{8}1,
{16}3,3,4,4,8,8,{32}7b<8[8:5],6z2[32:11],{16}5,{4},,,{16},,{32}2>1[8:5],
3p6[32:11],{16}4,{4},,,{16},,{32}6,
5s1[32:11],{16}4z8[16:5],,,,,,,,,,,{8}3,
,2v1[8:3]/6V48[8:3],,,,,,3/7,
{32},,,,6bpp8[8:3]/2bqq8[8:3],3/5,{16}4,,,,,,,,,,,{8}2/6,
{32},,,,3V14[8:3]/7V16[8:3],4/6,{16}5,,,,,,,,,,,{8}5,
,1/7,1,4/3,3,{16}6,5,
{8}6,4/7,1/8,2/5,{16}3,4,{8}3,5/7,{16}8,1,
{8}8,3/4,{4}4b/5bV73[4:1],{8}3-1[8:1],1b-6[8:1],2,4b,
,3/5,4/2,7/8<5[8:1],{16},1,{8}8,4>1[8:1],{16}3,6,
{8}4,{32}7,6,,,{8}1,5/4-7[8:1],{16},3,{8}4,3,2/1-5[8:1],
{16},8,{8}1,8,{16}7,6,7,6,,,2,3,2,3,
,,{8}1/8,5b/7b,2b/4b,{16}6,5,{8}6h[8:1],{16}3,4,3,4,
{8}3h[8:1],{32}8,7,6,5,{8}3,2/1>4[8:1],{16},8,{8}1,5<8[8:1],{16}6,3,
{8}5,{32}2,3,,,{8}8,4/7,{24}6,5,6,3,4,3,{8}5,{16}6/7-4[8:1],6,
{32}4-8[8:1],3,{16}2-5[16:1],{8}7,{4}2b,{8},,,,4h[8:1],
{16}6,6,,,{8}3h[4:15]/5h[4:15],{1},,,{4},,,{8},3-5[16:1],
{16},5,{8}3b,,6,
,6,,6/1>4[2:1],,6,,6,
,6,,6/5qq4[2:1],,6,,6,
,6,,8-4[16:1],,1b/8b,{24}3,5,4,6,,,3,
5,4,7b,,,,,,{8}6/2>5[8:1],{16},8,{8}2,8,{16}4,7,
{8}2pp3[16:3],6,{16}2,6,{8}6V82[16:3],{16},4,{8}6,4,3,
3,1/2,{16}8,2,{8}6>3[8:1],{16},2,{8}6,2,2<7[8:1],
{16},7,{8}2,{16}6,6,{8}1-5[8:1],{16},8,{8}1,{16}7qq5[8:1],4,7>2[8:1],3,
{8}7<4[8:1],,,3-8[8:1],{16},5,{8}3,5,{16}1,7,
{8}3pp2[4:1],6,{16}3,7,{8}7V51[16:3],{16},1,{8}7,2,3,
8/4,{16}7p3[8:1],5,{8}6,7/3,1,{16}2,4,{8}3>8[8:1],3/5,
7,{16}6,6,{8}8h[8:1],{16}7,7,6,6h[8:1],,1,1,2,2,3h[8:1],
,8,8,7,7,6,{8}6bV48[2:1]*>1[2:1],{4},,,{16},,{32}7-3[8:1],
6V84[32:15],{16}5,,,,,,,{8}3h[8:1],
,3h[8:1],{32},,,,3p7[8:1],4V61[32:15],{16}5,,,,,,,{8}2h[8:1],
,2h[8:1],,3V51[8:3]/8q7[8:3],,,,,,2/8,
{32},,,,7-2[8:1],6V83[32:15],{16}5,,,,,,,{8}4h[8:1],
,4h[8:1],{32},,,,4q8[8:1],3V15[32:15],{16}2,,,,,,,{8}7h[8:1],
,7h[8:1],,7/4,{16}6,5,{8}6,{16}3,4,2,5,
{8}1,{16}7,5,{8}6,2/4,{16}3,3,{8}3,7/5,{16}6,6,
{8}6,2/5,{4}8b/1bV37[4:1],{8}7-5[8:1],5b-2[8:1],6,8b,
,1/7,5/6,2/4-7[8:1],{16},5,{8}4,5<8[8:1],{16}6,1,
{8}5,{32}2,3-5[32:3],,,{8}1,3/8-4[8:1],{16},7,{8}8,7<4[8:1],{16}8,3,
{8}7p3[8:1],{16}2,2,{8}7,{16}2,4,2,3,,,7,6,7,5,
{4}8-5[8:1]*-4[8:1],8b,{16}2,6,{8}8h[8:1],{16}7,3,{8}1h[8:1],
4,{32}7,6-4[32:3],,,{8}3,6/1<6[8:1],{16},2,{8}1,3-8[8:1],{16}2,5,
{8}3,6,1/7,{16}8,2h[8:1],,1,{8}3h[8:1],{16}2,4h[8:1],,3,
4,2,5,1,5,8,{32}4b,3,{16}2,7,7,{32}3b,2,{16}1,6,6,{32}1,2,3,4,
5,6,{16}7,1,3,{8}5,8b-4[4:13],{1},,,{4},,,{8},7bV16[2:3]/3V52[2:3],
,,,,,,,,,,,,,,,5h[2:1],
,,,3h[2:1],
,,,8h[2:1],,,,6h[2:1],
,7-3[8:3],,,,,,3/6,
{24}4q1b[8:1],5p8b[12:1],4,5,,,{4}D5/A5/A4,{24},,,,,,,,,2h[24:1],4,,,,,7h[24:1],
5,,,,,3,4,3,{16}5,2,{48},,,,{24}7,5,6,5,8,{48},{16}2,
{48},,,,{24}5,3,4,3,{16}6,1,{48},,,,,,{24}6,5,6,4,5,3,4,3,5,2h[8:1],,,6,
5,7,5h[8:1],,,8,4,1,4h[4:1],,,,,,{8}6b,{32},,,,6h[32:5]/1h,2h,{16}3h,
5h,7h,{8}1h,{24}6,5,7,4,,,{8}1/2,{24}3,4,2,{8}5,7/8h[4:1],
{48}1,2,3,4,5,6,{8}7b,{24},,,6,5,6,{8}4,1/2,{24}3,4,2,5,,,7,
5,6,4,{48},{16}3/5,4/6,5/7,{8}8,{16}8,7/6,{8}6/5,{24}3/5,2,1,8h[8:1],{48},,,,{16}5,
4,7,4,7,4,6,4h[16:3],{24}6,7,8,1h[8:1],{48},,,,{16}2,8,2,7,
{8}2h[8:1],{16}6,4,{8}5h[8:1],3,{16}8,5,{8}6,{16}1,4,{24}3b,,7,
,6,,{8}5b/8-5[8:1],1,8/2b,3h[8:1],4,6h[8:1],3h[8:1],
4h[8:1],5h[8:1],6h[8:1],7>2[8:1],,3-8[8:1],,4<7[8:1],
,6-3[8:1],,1<6[8:1],,5h[16:3],,8>3[8:1],
,4h[16:3],,1<6[4:1],,6>3[4:1],,3v6[4:1],
,8,{16},2b,,,,,{8}3/1-5[8:1],{16},1/8-6[8:1],,,,,{8}5-1[8:1],
{16},5/4-2[8:1],,,,,{8}1-5[8:1],{16},1/7<6[16:1],,,,,{8}5bx,
,5/1,{24}2,4,3,4,,,{8}4/8,{24}7,5,6,
{8}5,5/1h[8:1],{16}4,2,,1,{8}3,2,{16}2,6,{24}4,5,4,
{8}3/6,{16}7/5q1[8:1],6/4,{8}5/3,2b<7[8:1],{16},4,{8}2,3,{16}2-5[8:1]*-6[8:1],4,
{8}3,2,,7>2[8:1],{16},5,{8}7,6,{16}5b/4,5/4b,
,,7,5,6,4,{8}5/2-7[8:1],{16},4,{8}2,{16}5<8[8:1],,,7,
{8}5,{16}1,1,{8}1,{16}2-6[32:3],7,1,8,,,7-3[32:3],8,6,8,
,,2,2,{8}4,3/4,5/6,3/4,{16}6>3[8:1],5,7,5,
{8}6,{16}1>4[8:1],2,1,8,{8}1<5[8:1],{16},5,{8}1,{16}3-8[8:1],4,,4,
{8}3,{16}6,6h[16:3],{8}7,{16}8x>3[16:1],5,8,5,{8}8,{16}1x<6[16:1],4,1,4,
{8}1,{16}2,6,4,5,{32}3x,5,4,5,4,5,4,5,3x,5,4,5,4,5,4,5,2x,5,4,5,
4,5,4,5,3x,5,4,5,4,5,4,5,{8}3b<6[8:1],1,3b/7-4[8:1],1,7b/3v6[8:1],
1,3b/7-2[8:1],1,5/7b,4,2/4-7[8:1],3/5,4b/6,
8,7/5-2[8:1],6/4,5b/3,1,6/2<7[8:1],8/4,2/6,
4,2/6>3[8:1],8/4,6/2-5[8:1]*-6[8:1],,2V83[16:3],,7-4[8:1]*-3[8:1],
,7,{32},,,,4b/8-5[8:1],7,6,5,{8}4,8b/4v7[8:1],2,4b/8-3b[8:1],
,8b/6>3[8:1],5,6b/2v5[8:1],1,2b/7<4[8:1],8,7b/3v6[8:1],
2,3b/1>4[8:1],8,1b/7v2[8:1],8,7b/1>4[8:1],8,1b/7-2[8:1]*-1[8:1],
,7<4[8:1],{32},,,,7/2>5[8:1],1,{16}8,{32},,,,2/6,7,{16}8h[16:3],{32},,,,7V51b[8:1],6,5,4,
3,2,1,8,{8}7b,{16},,1b,4,3,5,4,4,{32}8,7,{16}6,2b,4,
3,5,4,4,{32}8,7,{16}6,{24}2,4,3,{8}4b,{24}6,4,5,{8}3b,{24}2,4,3,
{8}4b,{16}3,6,5,8,8b,5,6,4,5,5,{32}1,2,{16}3,7b,4,
5,3,4,4,{32}1,2,{16}3,{24}6,3,5,{8}4b,{24}7,5,6,{8}5b,{24}2,4,3,
{32}5b,6,7,8,1,2,3,4,5,6,7,8,{16}3/1,3,{8}5bh[16:1]/4bh[16:1],{16}7,7,{8}6bh[16:1]/8bh[16:1],{16}2,2,
{8}3bh[16:1]/1bh[16:1],{16}5/4,5/4,{8}3bh[16:1]/6bh[16:1],{16}7,4,{32}6b,5,{16}6,2,5,{32}3b,4,{16}3,7,5,
{32}6b,5,{16}6,2,4,{32}3b,4,{16}3,{32}1,2,{16}1,{8}3bh[16:1]/8bh[16:1],{32}7,8,{16}7,{8}1bh[16:1]/6bh[16:1],{32}5,4,{16}5,
{8}6bh[16:1]/3bh[16:1],{16}2,6,1b,8,{24}2/7,1,8,1,8,1,8,1,8,{16}1,7,{24}2,,7,
{48},,,{16}2,{24}6,,6,{48},,,{16}C/6bx-3-6[16:59],{1},,{8}7bx-2b[8:13],
,,,,,,,,,,,,,,,C/4bx>5[2:7],
,,,,,,,,,,,,,,,C/8bx<5[2:3],
,,,,,,,,,,,,,,,3xh[2:1],
,,,4xq5[4:5],
{48},,,,,,,,,,,,,,,,,,D6,A6,{4},,,{16},,,{48},{8}3xh[2:1],
,,,4xq5[4:5],
{48},,,,,,,,,,,,,,,,,,D6,A6,{4},,,{16},,,{48},{8}A6,
,,,A7,
,,,A8,,,,A1,
,,,A2,,,,A3,
,,,A4,,,,A5,
,,,Ch[8:85],,,,B2h[8:81],
,,,B3h[8:77],,,,B4h[8:73],
,,,B5h[8:69],,,,B6h[8:65],
,,,B7h[8:61],
E
