&title=Sweet & Sour
&artist=Sakuzyo or Sobrem
&first=0.12
&lv_5=14+
&des_5=arcanum or delta
&inote_5=
(170){4},{3},,{24}1,7,
{8}2b/6bh[4:3],E5,E3,E1,E7,E5,3h[4:1],{24}2,1,8,
{8}7bh[2:1],{24}E6,E5,E4,E3,E2,E1,E8,E7,E6,{8}E5,A8/E2,D3/B5,D5/A6,
{16}2b,2,4,7x,7,5,1x,1,4,8x,8,5,3x,3h[8:1],,7,
7b,5,2,2x,4,8,{8}8xh[8:1],{24}6x,5,4,3x/8x,2,1,8x/5x,7,6,5x/8x,4,3,
{16}2x/Cf,{4},{16}6x,,6x,4>1[8:1],6,,6,,6,,6,
,6,1,6,,6,,6,4,6,,6,2h[4:1],6,,6,
,6,2pp5[8:3],6,,6,,6,,6,,6,,6,,6,
3,5,4,4,6,4,5,5,3,4,2,8,1,7,5,6,
{8}Cf,2/6,3/7,4/8,{64}5h[16:3]/1-6[8:1],{16},,,{64}E5,B4,B3,{4}E3,
{56}7h[16:3]/3-8[8:1],{28},,,,,{56}E7,B6,B5,{4}E5,{56}2h[16:3]/6-1[8:1],{28},,,,,{56}E3,B3,B4,{4}E5,
4>1[8:1]/8<5[8:1],8/4,{2}2h[16:3]/6h[16:3],
{12}1b/7,{24}2,6,{12}3,4b,{24}5,2,{12}6,{2}7b/1,
{16}2,3,4,5,6,7,8,1,3,4,5,6,7,8,1,2,
4,5,6,7,8,1,2,3,5,6,7,8,1,2,3,4,
5,6,7,8,5,6,7,8,1,2,3,4,1,2,3,4,
8,1,2,3,7,8,1,2,6,7,8,1,4,5,6,7,
{8}3/8,4/6,1/2,7/5,{56}2h[16:3]/5-8[8:1],{28},,,,,{56}E3,B3,B4,{4}E5,
{56}7h[16:3]/4-1[8:1],{28},,,,,{56}E7,B6,B5,{4}E5,{56}2h[16:3]/6-3[8:1],{28},,,,,{56}E2,B1,B8,{4}E8,
{16}1,5,2,6,3,7,{8}4,{56}6h[16:3]/5-2[8:1],{28},,,,,{56}E7,B7,B8,{4}E1,
{12}1b/6,{24}7,2,{12}8,4/1b,{24}3,7,{12}2,{2}1bh[4:1]/5h[4:1],
{8}2x/6x,3/6pp5[8:3],2,3,2,3,2,3,
2/5,{16}3,4,2,5,3,4pp6[16:3],{8}2,3,2,3,
2/7,{16}3,8,2,1,3,8qq4[8:3],{8}2,3,2,3,
2,1,8,7,3,4,5,6,
7/3x-1[8:1],6/3,7,6,7/8-4[8:1],6/8,7,6,
7/5-2[8:1],6/5,7,6,{16}7,1,6,2,7,3,6,4,
{8}7,6/4h[8:3],7,6,7,{16}3/6,2,{8}1/7,{16}1/6,2,
{8}7/3h[8:3],8,1,2,6/1h[8:3],5,4,3,
6x/2x,{24}8,7,6,4,3,2,7,6,5,3,2,1,6,5,4,2,1,8,5,4,3,
1,8,7,Cf,{48},,,,,,,{16}6h[8:1]/2h[8:1],{8},{16}7h[8:1]/3h[8:1],{8},{16}2/6,{8},{24}1,2,3,
5,6,7,2,3,4,6,7,8,3,4,5,{16}D2,D1,D8,D7,{4}D6f,
{16},3,4,2,5,3,4,2,{24}5,6,7,8h[4:1],,,,,,{16}2,3,
4x,6,4,6,4,2,4,2,4,5,4,5,4,3,4,3,
4x,6,4,2,4,5,4,3,4,5,4,3,4,6,4,2,
{8}8x,{16}7,5,7,5,7,4,8,2,8,3,1,5,1,4,
7,8,5,1,6,3,8,2,7,5,3,1,{4}1,
{8}6x/2x,3/7,4/8,1/5,{56}6h[16:3]/2-7[8:1],{28},,,,,{56}E6,B5,B4,{4}E4,
{8}8x/4x,3/7,2/6,1/5,{56}4h[16:3]/8-3[8:1],{28},,,,,{56}E5,B5,B6,{4}E7,
{8}2x/6x,1/8,7/5,4/2,{56}4h[16:3]/5-8[8:1],{28},,,,,{56}E4,B3,B2,{8}E2,1x,
2x/6x,{16}7,3,7,3,7,3,7,3,7,3,{8}7,6/2,
5x/4x,3/1,4/7,6/2,3/4,1/6,5/7,3/1,
6/2,4/8,1/2,6/4,2/5,3/7,1/6,2/4,
{4}7b/8b,{16}1,8,1,8,1,8,1,8,1,8,1,8,
2b/7,{48}3,7,,{24}4,{48}7,5,{24},{16}8b/6,{48}5,8,,{24}4,{48}8,3,{24},{4}2/6b,{16}7,6,5,4,
{4}3/1xh[4:3],{8}2,2,2,2,2,2,
2/1qq1[2:1],2,2,2,2,2,2,{48}2,E2,B1,B8,{24}E8,
{8}7xh[1:1],6,6,6,6,6,6,6,
6,6,6/7pp8[8:3],6,6,6,6,{48}6,E6,B5,B4,{24}E4,
{4}3xh[4:3],{8}4,4,4,4,4,4,
4/3qq1[2:1],4,4,4,4,4,4,{48}4,E4,B3,B2,{24}E2,
{4}1xh[1:1],{8}8,8,8,8,8,8,
8,7/2,6/3,5/4,4/5,6/3,{16}B2/B7,A7/A2,{8},8b/1b,
{16}2,6,2,6,3,5,4,6,5,5,4,5,3,4,
4,5,4,6,5,5,{8}5,3/2-5[8:1],1/8,{16}6/2,{8},{16}7x/B4/B3/E4f,
{8},1x/E7f/B7/B6,,{16}2,2,8,1,{8}7h[4:3],{16},{48}6,5,4,{8},{48}5,
4,{24}3,{48},,,,,4,3,2,{8},{48}3,2,{12}1,{16},6,6,2,4,3,3,7xh[16:5],
{8},{32}1x,2,3,4,5h[8:1],8,1,2,{8}3h[4:1],{32}1,8,7,6,5h[8:1],2,1,8,{8}7h[4:1],{32}4,3,2,1,
8h[8:1],6,5,4,{8}3h[8:1],{32}8,1,2,3,4,5,1,8,7,6,5,4,2,1,8,7,6,5,4,3,{8}2/8-4[8:1],
,{16}8b/7h[2:1],Cf,{8},,,5-8[8:1],,{16}5b/3h[8:3],E7f,
{4},{16}1,2,1,2,3,2,3-7[8:1],2,4,2,3b,Cf,
{8},6/1,{24}8,7,8,7,8,7,8,7,8,7,8,7,{4}8,
{8}6/2,{16}5,4,,3/4,,8/7,,1,{8}8,{16}3,4,5,6,
{8}E3f,{16}4,3,2,1,{8}E5f,{16}7,8,1,2,{8}E7f,{16}4,3,
2,1,8,7,6h[16:1],{8},{16}5/4,,3,{8}3,{16}8,7,6,5,
{8}E1f,{16}3,4,5,6,{8}E5f,{16}2,1,8,7,4,3,2,1,
6x,4,5,4,7x,3,4,3,8x,5,6,5,{8}1x-6b[8:1],3,
{16}1b,E8f,{8},{24}D5,D4,D3,D2,D1,D8,3xh[16:3]/6x-2[8:1],{6},{48}E4,E5,{4}A5,
{64}1xh[16:3]/5x<8[8:1],{16},,,{64}D2,A2,D3,A3,D4,{32},,,,,,,{64}1xh[16:3]/5xv2[8:1],{16},,,{64}B1,C,B6,{4}A6,
7x-4[8:1]/3x-8[8:1],3/7,{8}6h[16:3]/2h[16:3],{4},{16}3,3,
5,4,6,6,3,4,2,2,7,6,8,8,{8}1w5[8:1],8/2,
{16}1b,Cf,{8},{24}A7,A8,A1,A2,A3,A4,{56}8xh[16:3]/5x-7[8:1],{28},,,,,{56}B8,C,B4,{4}A4,
{56}8xh[16:3]/3x-6[8:1],{28},,,,,{56}E1,B1,B2,{4}E3,{56}5xh[16:3]/1xp5[8:1],{28},,,,,{56}E5,E4,E3,{4}E2,
{8}4/6h[8:1],2,5/3h[8:1],7,{2}8h[16:3]/1h[16:3],
{24}6/2b,3,4,5,6,7,8b/Cf,1,2,3,4,5,{2}6bh[4:1]/2-7[8:1],
{8}4x/8,4/7,4/6,4/5,4/3h[16:3],{56}4,,,,E3,B2,{2688}B1,{336},,,,,{2688}E1,{448},{8}4,4,
4/1h[16:3],{56}4,,,,B1,C,{2688}B5,{336},,,,,{2688}A5,{448},{8}4,4,4/6h[16:3],{56}4,,,,E7,E8,{2688}E1,{336},,,,,{2688}E2,{448},{8}4,4,
8x/3,2/8,1/8,8/7,8/6h[16:3],{56}8,,,,E6,E5,{2688}E4,{336},,,,,{2688}E3,{448},{8}8,8,
8/1h[16:3],{56}8,,,,E2,B2,{2688}B3,{336},,,,,{2688}E4,{448},{8}8,8,8/5h[16:3],{56}8,,,,B5,C,{2688}B1,{336},,,,,{2688}A1,{448},{8}8,8,
6x/2x,3/4,1/7,6/4,{16}2/1-5[8:1],{8},{16}1h[16:3],{4},{16}4x/7x,
{8},{48}7h[16:3]/E6,E5,E4,{8}E3,1,{16}8x/2x,{8},{48}2h[16:3]/E7,E6,E5,{8}E4,6,
{16}7x/3x,{8},{48}8h[16:3]/E2,E3,E4,{8}E5,2,{16}1x/6x,{8},{48}8h[16:3]/E3,E4,E5,{8}E6,7,
6/1,{16}2,4,3,5,4,6,3,5,{32}2,1,8,7,{4}4x/6x,
{8}7/3,1/2,4/6,2/5,3/8,{16}2,{48}2/E5,E6,E7,{4}E8,
{8}6x/1x,{16}7,{48}7/E5,E4,E3,{4}E2,{8}2x/5x,{16}3,{48}3/E1,E8,E7,{4}E6,
{8}7x/4x,{16}6,6,2x,2,8,8,3x,3,5,5x/4x,{8},3/6,
{32}7/2b,1,8,7,6,5,4,3,2/6b,7,8,1,2,3,4,5,{8}2bh[16:3]/6h[16:3],{4},{8}3xh[8:3]/7xqq8[4:7],
,,,B3,2,E2,1,E1,
2,B2,1,B8,2,E2,3qq4[4:7],B3,
7,B7,6,E6,5,E5,6,B6,
5,B4,6,E6,7,E7,8,B8,
{16}2xh[16:13]/3-5[8:1],{4},,,{16}3,,3,
7,1,3,1,6,2,4,2,5,1,3,1,{8}7h[16:3],{16}2,2,
{8}Cf,{16}3,4,4,5,4,6,5,5,5,5h[16:3],{8},{24}7,8,1,
{8}2/Cf,{16}6,5,5,4,5,3,4,4,4,4h[16:3],{8},{24}2,1,8,
{4}7-3[8:1],2,{16}1h[16:3],{8},{112}4,E2,{336},{168}5,B2,{112},{336}6,B3,{896},,,,,,,,,,,{384}E4,{8}7,2bh[1:2]/7b>3v5[2:3],
{1},,{16}3/6b,
{48}6,3,,{24}6,{48}3,6,{24},{32}5b/4,3,2,1,8,7,{16}6,{2}4bh[4:1]/5h[4:1],
E
