&title=人生
&artist=Ann-MeltsP
&first=0
&des=sagitta☆
&lv_5=14+
&inote_5=(185){2},
{4},,
{2}3b/A6/E7f/A7,5b/E2f/A1/A2,{4}1b/A6/E6f/A5,8,7bh[4:1]/A2/E3f/A3,,{2}3b-6[8:1]/A7/E8f/A8,7b-2[8:1]/E4f/A4/A3,{4}A8/E1f/A1/D8/D2,C,A5/E5f/A4/D6/D4,,
{8}7b/5h[4:1],,6,4,5h[4:1]/3b,,2,3,4/8b-5[8:1],,4b-1[8:1]/8,,6bw2[8:1]/4,,,,
{16}8x,8xh[8:1],,2x,2xh[8:1],,4,3,2b-7[8:1]/5b-8[8:1],,,,2b/5b,,,,
{16}1b,2,3,4,8,7,6,5,3,4,3,4,2,1,3,3,8b,7,6,5,1,2,3,4,6,5,6,5,7,8,6,6,3b,5,3,5,4,6,4,6,5,7,4,6,3,5,2,4,1b,,8/2,,7-2[16:1]/3-6[16:1],,7/3,7bx/3bx`Cf,,,,,,,,,
(142){8}5xh[2:1]/4xh[4:1],,,,,,5/4,3,{8}2-4[8:1],1,8-6[8:1],1,2-4[8:1],1,8,1,{8}2^5[8:1],5^8[8:1],8p2[8:1],,,,{24}4/2,,6,5,,,
{8}7-5[8:1],8,1-3[8:1],8,7-5[8:1],8,1,8,
{24}7,,7,4,,4,6,,3,5pp1[4:1],,2,,,,3,,,4,,,4,,,
{8}5-3[8:1],6,7-1[8:1],6,5-3[8:1],6,7,6,
{8}5>1[8:1],1<1[4:1],Cf,,,,6/8,5/1,
{8}4-6[8:1],3,2-8[8:1],3,4-6[8:1],3,2,3,
{24}2,,2,5,,5,3,,6,4-8-4[4:1],,7b/3b,,,,B6/E7,,,E2/B2,,,A8/B8,,,
{16}7/5,7/5-1[8:1],,4/3,,5/2,,3,3q7[8:1],,7q3[8:1],,6xh[8:1],,,,
{16}4,4-8[8:1],,6/5,,7/4,,6,6p2[8:1],,2p6[8:1],,1x,,1x,,
{16}8,8^5[8:1],,A1/D2/A2,,8/3,,4,4qq6[4:1],,7,,8xh[8:1],,,,
{16}1,1^4[8:1],,A8/D8/A7,,1/6,,5,5pp3[4:1],,2,,1x,,1x,,
{16}2h[16:1],,2,,3-6^1[4:1]/4,4,2h[8:1],,3x,,4h[16:1],,4-8[8:1],,6/2,,
{16}7h[16:1],,7,,6-3^8[4:1]/5,5,7h[8:1],,6x,,5h[16:1],,5-1[8:1],,3/7,,
{16}4h[16:1],,4,,3-8[8:1]/7h[16:1],,8V62[4:1],,3x,,4h[16:1],,4-8[8:1],,5,,
{16}1h[16:1],,1,,7,7,5,5,1xh[16:1],,8/2,,{16}D8/E8,D3/E3,D7/A6,D4/A4,
(185){4}5x,5x,5x,5x,
{16}3,4,3,4,3,4,3,4,2,5,2,5,2,5,2,5,
{16}4,6,4,6,4,6,4,6,3,7,3,7,3,7,3,7,
{16}2,8,3,8,4,8,5,8,4,7,3,7,2,7,1,7,
{16}2,1,3,8,4,7,5,6,4,5,3,6,2,7,1,8,
{8}1h[16:1],8h[16:1]/7h[16:1],6h[16:1]/1h[16:1],5h[16:1]/2h[16:1],3h[16:1]/4h[16:1],5h[16:1]/4h[16:1],6h[16:1]/3h[16:1],6h[16:1]/3h[16:1],
{16}8xh[8:1]/2,,5,7xh[8:1],,1,7xh[8:1],,4,6xh[8:1],,8,6xh[8:1],,2,5xh[8:1],
{16},7,5xh[8:1],,2,4xh[8:1],,6,4xh[8:1],,8,C,,,3bh[8:1],,
{16}E2/D2,3bh[8:1],,E6/D6,2bh[8:1],,D8/E8,2bh[8:1],,D4/E4,1bh[8:1],,7,6,5,4,
{16}3bx/2bx-5[8:1],,,,,,6,7,8v2[8:1]*p4[8:1],,,,8,,,,
{16}3h[8:1],,,3/2h[8:1],,,1,,8^3[8:1]/2,,,,7/8,,6,,
{16}5b-1[8:1],,3,3,5,,3,,2b-6[8:1],,8,8,2,,7,,
{16}6xh[8:1]/5xh[8:1],,,7xh[8:1]/4xh[8:1],,,8x/3x,,8x^5[8:1]/3x^8[8:1],,,,8-4[8:1]/3,,,,
{16}8bx^5-1[4:1]/4bx,,,,,,4,3,2-6[8:1]*-4[8:1],,,,2,,,,
{16}5h[8:1],,,4/6h[8:1],,,5/3,,6v3[8:1]/2,,,,6/1,,1,,
{16}2b^5[8:1],,6,6,2,,7,,8bp4[8:1],,4,4,8,,3,,
{16}3xh[8:1]/2xh[8:1],,,4xh[8:1]/1xh[8:1],,,8x/5x,,7x>5[4:1]/6x,,,,5/A7f,,,,
{16}6b,7,8,1,4,3,2,1,7/8,6,5,4,8,1,2,3,
{16}4b/5b,6,7,8,5,4,3,2,1/8,7,6,5,8,1,2,3,
{16}4b/5b,6,7,8,1/2,8,7,6,5b/4b,3,2,1,8/7,1,2,3,
{16}7b/4b,6,5,4,3/8,2,1,8,7bv2[8:1]/5bv2[8:1],,,,7/5,,,,
{16}3b-8[8:1]/4b-8[8:1],,5b/2b,,3b/4b,,,,7/1,2,3,4,1/5,8,7,6,
{16}2b/5b,3,4,5,6/1,7,8,1,2b/5b,,3,4,3,,2/8,,
{16}5b,7,4,7,3,7,2,7,4b,6,3,6,2,6,1,6,
{16}3b,5,2,5,1,5,8,5,{32}2b,1,8,7,6,5,4,3,{4}2w6b[8:1]/6,
(92.5)
{1}2b>2b[4:5]*<2b[4:5],,
{2}3pp4[4:1],7pp8[4:1],2V46[4:1],{4}8h[4:1],{12}6,7/5,6/4,
{12}5/3,{24}3,4,{12}3,1/2,1/2,8/3,6/4,{24}6,5,{12}6,7/8,7/8,6/1,5/2-6[8:1],6/3,4/7,2/8^5[8:1],1,1,8/4z8[4:1],,,,,,5h[12:8],,,1,2,3,4h[12:2],,,5/4,6/3,7/2,{2}8-5[4:1]/1-4[4:1],
(185){4},,7/3,1^6[8:1]/2,
{8}A1f/4b-2[8:1],,4-8[8:1]/5,6,7-3[8:1]/4,,7/1,2,
{8}1/4>8[4:1],,8<4[4:1],,Cf,,{16}3,2,1,8,
{8}7x>3[4:1]/4x,,{16}4,5,6,7,8-4[8:1],,,,8/1,,,,
{8}2x/5x,3/6,2xv5[8:1]/7x,3/8,2b/1bw5b[8:1],,1b,,
{8}7bh[8:1]/3b,{32}4,3,2,1,{4}6bqq3[2:1]/8b,{8}1-7[8:1],2,1-3[8:1],,
{4}1b-4[8:1]/5b,1b-6[8:1]*-5[8:1]/6b,A1f,{16}3,4,3,4,
{8}2bv4[8:1],,{16}5/2,6,7,8,1bv6[8:1]/5b-2[8:1],,,,1/5,,,,
{16}7x,8,,2x,1,,8x/3x,7/4,6bw2[8:1]/5b,,,,Cf,,,,
{16}4b,8,4,8,4,8,4,8,3,7,3,7,3,7,3,7,
{16}2b,6,1,5,2,6,1,5,3,7,4,8,3,7,4,8,
{16}5b,6,5,6,4,3,2,1,4,3,4,3,4,5,6,7,
{16}8b,2,7,2,6,2,5,2,7,1,6,1,5,1,4,1,
{16}5x,5x,3,3,6,7,2,1,8x,8x,4,4,{48}A7,D7,A6,D6,A5,,A1,D2,A2,D3,A3,,
{16}6x,5,6,3x,4,3,7x,5,6,2x,4,3,6x,5,7,3x,
{16}4,2,8x,1,7,1x,8,2,5,,7/3,,6/2,,8/4,,
{16}2b,1,3,7b,8,6,2b,4,3,7b,5,6,4b,5,4,5,
{8}6bx/3bx-6[8:1],7,8-4[8:1]/3,1,{32}5x-7[8:1]*-1[8:1],4,3,2,,,,,5,,,,,,,,
{16}8x-2[8:1],,7,,6/8-3[8:1],,5,5,8-4[8:1],,4-8[8:1],,8,,5,,
{8}6b-3[8:1],2,1-5[8:1]/6,8,{32}4x-2[8:1]*-8[8:1],5,6,7,,,,,4,,,,,,,,
{16}1x-7[8:1],,2,,3/1-6[8:1],,4,4,1-5[8:1],,5-1[8:1],,1,,,,
{12}2b,2,2,4b,4,4,3b,5,4,6b/2b,,,
{12}7b,7,7,5b,5,5,6b,4,5,3b/7b,,,
{12}8b/2b,,,3,3,3,4b/2b,,,6,6,6,
{8}7b/5b,{32}4x,3x,2x,1x,6b,,,,5x,6x,7x,8x,3bw7b[8:1],,,,,,,,,,,,,,,,
{8}A1f/D1/D2/A5/D6/D5,,2-4[8:1],4-2[8:1],2-6[8:1],,5^8[8:1]*-8[8:1],,
{4}5b-2[8:1]*^2[8:1],5bw1[8:1],A5f/D5/D6,{24}3x,7x,3x,7x,,,
{16}4h[8:1],,6,5,7h[8:1],,2,8,1h[8:1],,5,2,4,,3,,
{8}7b/4b,6/3,7bv4[8:1]/2b,6/1,7b/8b^5b[8:1]*^3b[8:1],,8b,,
{16}4b,2,5,2,6,2,7,2,5b,3,6,3,7,3,8,3,
{16}6b,4,7,4,8,4,1,4,{32}7b,8,1,2,3,4,5,6,{4}7-2[8:1]/3-6[8:1],
{1}7bV14[2:1]/3bV58[2:1],
{2}1b-4[8:1]*-6[8:1],5bw1[8:1],
{16}7b,3,6,4,7,5,8,8,2b,6,3,5,2,4,1,1,
{16}8b,3,7,4,6,5,7,7,1b,6,2,5,3,4,2,2,
{16}6b,5,7,7,3b,4,2,2,{24}5b,6,7,8,1,2,4b,3,2,1,8,7,
{16}5b,,4b/6b,,3b-6b[16:1]/7b-2b[16:1],,3/7,3bx/7bx`Cf/E1/E5,,,,,,,,,
