&title=アルカテイル
&artist=KEYS/VISUAL ARTS feat.鈴木このみ
&first=-0.01
&lv_5=12+
&des=Rotifera[NATSUYASUMI]
&inote_5=
(119){4},{64},,,,,,,,,,,,,,,,,1,,,,,,,,,,,,,,,,2,{192},3,,,,4-8[3:1],{4},{16},{64},3,
,,,,,,,3,,,,,,,,,,,,,,,,1,,,,,,,,,,,,,,,,2,{192},3,,,,4V68[12:7],{4},{16},{64},3h[4:1],
{4},{16},{64},,,2,,,,,,,,2,,,,,,,,7,{192},6,,,,5V31[12:7],{4},{16},{64},6h[4:1],
{4},{16},{64},,,7,,,,,,,,7,,,,,,,,8<5[4:1],,,,,,,,1,,,,,,,{8}2,
3,4>1[4:1],5,{64}6,,,,,,,,,7,,,,,,,8,,,,,,,,,7,,,,,,,{8}6/4,
3,7,6,4/5,3,3,2,
1/7,6,2,1,{64}7/8,,,,,,,(84),{8}6,{64},5w1[0.7143##3.2254],{4},,,{16},{32},(144){8},
,,,,,,,,,,{4}4b/5b,
5/6<1[8:1],2,{8}3,4,
{4}5/2,7h[4:1]/2qq5[2:1],,6h[4:1],
,4h[4:1]/7pp4[2:1],,3,
2,{16}1h[16:3],,,2h[16:3],,,{8}3,{16}5h[16:3],,,6h[16:3],
,,{8}7,{4}8>3[8:1],4,{8}6,5,
4/7,{16}3,4,{4}2>5[4:1],5<8[4:1],8>3[4:1],
3,5qq1[2:1]*pp1[2:1],,,,4qq3[8:3]*pp5[8:3],
,,,2q5[2:1],
{8},7h[8:3],,,,,{4}6q1[2:1],
{8},4h[8:3],,,,,{4}3qq3[2:1],
{8},6h[8:3],,,,,{4}7qq7[2:1],
{8},2h[8:3],,,,,3qq4[2:1],
5,6,7h[8:3],,,,,3qq4[2:1],
5,6,7h[8:3],,,,,3qq5[4:3],
5,6,7,,,,8,
{4}8h[4:3],{8},1,{4}1h[4:1],
{8},,6,5,7/4<7[4:1],3,{4}2h[4:1],
{8},,3,4,2/5>2[4:1],6,{4}7h[4:1],
{16},,,,7<4[8:1],,,8,,,{8}1,{4}2<7[8:1],
3,{16}2>5[8:1],,,1,,,{8}8,7,6/5,
2,3/4,{4}4-1[8:1]/5-8[8:1],4/5,{8}7,6/5,
2,3/4,{16}5h[16:3],,,6h[16:3],,,{8}7<4[8:1],{16},,,,,,3,
4,2>5[8:1],,,1,,,{8}8,{4}7h[4:1],
,7>2[4:1],2>5[4:1],5<8[4:1],
8,2pp4[8:1],{8}1,1<5[16:3],{4}3h[4:1],
{8},,4,3,{4}2/1,{8}8,6/5,
1,3/4,{4}7qq5[8:1],{8}8,8>4[16:3],,6,
,6,{4}7<4[8:1]/8p3[8:1],,2>5[8:1]/1q6[8:1],
,8<1[8:7]/1p8[8:7],{8},,,,,,,,,8,
8-4[8:1],8,
{4}8,5h[4:3]/1h[4:3],{12},,,,,,,,,1/5,
2/6,3/7,{2}4>6[8:3]/8pp5[8:3],
{16},,,,3,4,3,4,{8}3,{16}6,5,6,5,{8}6,
8<2[16:9]/1>7[16:9],4/5,,,,,,,8b/1b,
{16}7,8,{8}7-4[8:1],8,1-5[8:1],2,3-8[8:1],4-7[8:1],
3,4,,2>5[8:1],1,8h[4:1],,1>5[8:3],
7,6,{4}5<1[4:1],1>5[4:1],{8}5,6,
7-3[16:1],7,,,2,3/4,7,6/5,
8/1,{16}2,1,{4}2>5[8:1],{8},1,8,7,
6/5,4,{4}3pp5[4:1],5>1[4:1],{8}8,7,
6,5,{4}4h[4:1],{16},,8,1,{8}2,3-8[8:1]/7-4[8:1],
4/8,3/7,,5w1[8:1],6/4,5,,,8b/1b,
{16}2,1,{8}2-5[8:1],1,8-4[8:1],7,6-1[8:1],5-2[8:1],
6,5,,7<4[8:1],8,1h[4:1],,8<5[8:1],
2,{16}2,3,{4}4b-1[8:1],{8}5,5b-8[8:1],,5/4-1[8:1],
,4/7,{4}7b>2[8:1],{8}3,3b<6[8:1],{16},,,,,,7,
8,{4}7<4[8:1],{8}8,1h[8:3],,2,
3,4,{4}5pp8[8:3],{8},4h[8:3],{16},,,,,,2,
1,{4}2>5[8:1],{8},8,{16}7,5,,5,
{8}6,2,{4}4>5[8:3],{8},,,4,
3,2,{16}1h[8:1]/8h[8:1],,,4h[8:1]/5h[8:1],,,{8}2h[4:1]/7pp4[2:1],,,3,
3,3,2,1,8,7,6,
{16}5,4,{8}5,{4}8/7<4[8:1],3,{8}2,1,
{4}8/3,6h[4:1]/3pp8[2:1],,7h[4:1],
,1h[4:1]/6qq1[2:1],,2,
3,{16}4h[16:3],,,3h[16:3],,,{8}2,{16}8h[16:3],,,7h[16:3],
,,{8}6,{4}5>2[8:1],1,{8}7,8,
1/6,{16}2,1,{4}3>8[4:1],8<5[4:1],5>2[4:1],
2,{8}8h[4:1],1,1,{16}8,1,{8}8,2/7,
3/6,4/5,{16}1h[8:1]/7h[8:1],,,4h[8:1]/5h[8:1],,,{8}6/3,{16}8h[8:1]/2h[8:1],,,5h[8:1]/4h[8:1],
,,{8}2b/7b>4[8:31],{1},{16},,{48}7,
6,{12}5h[6:17],
E
