&title=3rd Avenue
&artist=DW_IN
&first=0
&des=Sakurago
&lv_5=13
&inote_5=(129.99)
{8},,,,,,,,
4x,{16},5,{8}4,5,4,{16},5,{8}4,5,
4,{16},5,{8}4,5,4,{16},5,{8}4,5,
3,{16},6,{8}3,6,3,{16},6,{8}3,6,
3,{16},6,{8}3,6,3,{16},6,{8}3,6,
2x,{16},7,{8}2,7,{16}2,2,7,,{8}2,7,
2,{16},7,{8}2,7,{16}2,2,7,,{8}2,7,
1,{16},8,{8}1,8,{16}1,1,8,,{8}1,8h[16:11],
{16},,,B5/B6/E6,,,B1/B2/E2,,,Cf,,,,,,,
{8}3/7,4,2/6,1h[8:10],4h[8:1],,8h[8:1],,
4h[8:1],,8h[8:1],,3,2,7h[8:1]/3,4h[8:5],
1h[8:1],,6h[8:1],,1h[8:1],3,6h[8:1]/2,1h[8:3],
4h[8:1],,7h[8:1],3h[8:3],4h[8:1],,4,5,
6/2,5,7/3,8h[8:10],5h[8:1],,1h[8:1],,
5h[8:1],,1h[8:1],,6,7,2h[8:1]/6,5h[8:5],
8h[8:1],,3h[8:1],,8h[8:1],6,3h[8:1]/7,8h[8:2],
5h[8:1],,2h[8:1]/4h[8:1],,5h[8:1]/6h[8:1],,2h[8:1]/1h[8:1],,
3/5,4,3/5,4,2/6,4,2/6,4,
6/4,5,6/4,5,7/3,5,7/3,5,
4/5,3,4/5,6,3/5,2,4/6,7,
3/5,1,4/6,8,2/5,1,4/7,8,
1,2,3,4,5,6,7,8,
1/B6,2,3,4,5/B2,6,7,8,
{24}1x/B5,2x,3x,4x,5x,6x,7x/B3,8x,1x,2x,3x,4x,5x/B1,6x,7x,8x,1x,2x,3x/B7,4x,5x,6x,7x,8x,
{8}1x/Ch[8:6],,,,,,,,
(21.665){48}1-5[64:4],(129.99){8},E4,E8,E3,E7,E2,E6,
E4,B3,B6,B7,,,,,
(21.665){48}7p3[64:4],(129.99){8},E8,B8,B1,E2,B2,B3,
E4,B4,B5,E6,,,,,
(21.665){48}2V48[64:4],(129.99){8},E8,E6,E1,E5,E2,E4,
B2,B1,B8,B7,,,,,
(32.4975){32}5w1[64:12],(129.99){8},E2,E1,E3,E8,E4,E7,
,,,,,,,,
(21.665){48}1-5[64:4]/7-3[64:4],(129.99){8},B2,E3,B3,E4,B4,E5,
B5,E6,B6,C,,,,,
(21.665){48}5q2[64:4]/4p7[64:4],(129.99){8},B7,E7,B6,E6,B5,B4,
E4,B3,E3,B2,,,,,
(21.665){48}1V37[64:4]/7V51[64:4],(129.99){8},B2/B6,B4/B8,B2/B6,B4/B8,B2/B6,B4/B8,
B2/B6,B4/B8,B2/B6,B4/B8,,,,,
(32.4975){32}1qq6[64:12]/2pp5[64:12],(129.99){8},B3/E4/B4,B7/B8/E8,B3/E4/B4,B7/B8/E8,B3/E4/B4,B7/B8/E8,
,,,,,,,,
2hx[8:7]/Cf,,,,,,,4h[8:4],
,,,3h[8:3],,,4h[8:2],,
5h[8:5],,,,,6h[8:2],,3h[8:5],
,,,,5h[8:1],4h[8:1],3h[8:1],2h[8:1],
1h[8:7],,,,,,,4h[8:4],
,,,7h[8:3],,,2h[8:2],,
5h[8:10],,,,,3,,4h[8:3],
,,,,3,6,2,7,
1/B8,,B1,,B2,,B3,,
B4,,B5,,B6,,B7,,
E1,,E2,,E3,,E4,,
E5,,E6,,E7,,E8,,
Ch[8:30]/B1/B2,,B5/B6,,B3/B4,,B7/B8,,
B2/E2,,B6/E6,,B4/E4,,B8/E8,,
B2/B3/E3,,B4/B5/E5,,B6/B7/E7,,B1/B8/E1,,
B3/B4/E4,,B7/B8/E8,,1hx[8:2],,{32}E2,B2,B3,E4,,,,,
{8}3hx[16:3]/5hx[16:3],,4h[16:3]/6h[16:3],,3h[16:3]/4h[16:3],,5h[16:3]/6h[16:3],,
2h[16:3]/5h[16:3],,4h[16:3]/7h[16:3],,2h[16:3]/4h[16:3],,5h[16:3]/7h[16:3],,
2h[16:3]/B5,,B4/7h[16:3],,1h[16:3]/E6,,8h[16:3]/E4,,
1h[16:3]/E3,,E7/8h[16:3],,2h[16:3]/3h[16:3],,{32}E2/E4,B1/B4,B8/B5,E8/E6,,,,,
{8}5x/4x,5/3,5/2,5/1,5x/4x,5/3,5/2,5/1,
4x/5x,4/6,4/7,4/8,4x/5x,4/6,4/7,4/8,
{24}4b,,8x,3b,,7x,2b,,6x,1b,,5x,8b,,B4,7b,,B3,6b,,B2,5b,,,
{8}Chf[8:6],,,,,,,,
(21.665){48}2p5[64:4]/6p1[64:4],(129.99){8},B4/B8,C,E3/E7,C,B4/B8,C,
E3/E7,C,B4/B8,C,,,,,
(21.665){48}1pp1[64:4]/5v7[64:4],(129.99){8},B3/E5,E6,B3/E5,B2,B3/E5,E7,
B3/E5,E2,B3/E5,B8,,,,,
(21.665){48}8pp2[64:4]/4pp7[64:4],(129.99){8},B5/B6/E6,B3/E4,B5/B6/E6,B2/E2,B5/B6/E6,B2/E3,
B5/B6/E6,B1/E1,B5/B6/E6,B1/B2/E2,,,,,
(32.4975){32}8V63[64:12]*V25[64:12],(129.99){8},B3/E4,B5/E5,B2/E3,B6/E6,E1/B1,B7/E8,
,,,,,,,,
(21.665){48}1p7[64:4]/6>2[64:4],(129.99){8},E5/C,E4/C,E3/C,E2/C,E1/C,E8/C,
E7/C,E6/C,E5/C,E4/C,,,,,
(21.665){48}3p1[64:4]/8V64[64:4],(129.99){8},B6/C,B7/C,B8/C,B1/C,B2/C,B3/C,
B4/C,B5/C,B6/C,B7/C,,,,,
(21.665){48}4pp8[64:4]/1V37[64:4],(129.99){8},E4/E8,B1/E6,B8/E5,B1/B6,E5/E8,B5/B2,
E6/E8,B6/B7,B5/B8,E1/E5,,,,,
(32.4975){32}1>1[64:12]*-5[64:6],(129.99){8},B4/B8,B2/B6,B4/B8,B2/B6,E4/E8,E3/E7,
,,,,,,,,
4b,,,,
E
