&title=燕子花 -Kakitsubata-
&artist=モリモリあつし/polysha
&first=0
&des=KiRiShou
&lv_5=14
&inote_5=(155)
{1},
{8}5,3,3h[8:2],,4,4h[8:2],,5,5h[8:2],,6,6h[8:2],,3,3h[8:2],
{16}5,6,7p6[8:6],,,,,,,,,,,,,,
{16}E2,,,,E4,,C,,E7,B6,B5,,E1,,E8,,E7,,,,
{8}6,6h[8:2],,5,5h[8:2],,4,4h[8:2],,3,3h[8:2],,6,6h[8:2],
{16}4,3,2pp1[8:6],,,,,,,,,,
{16}E1,,,,C,,,,E5,,E6,,E1,B1,B2,,E8,,E7,,E6,,,,
{8}2,2,4,3,3h[8:3],,1,1h[8:2],,8,8h[8:2],,6,6h[8:2],
{16}1,2,3p2[8:6],,,,,,,,,,
{16}8,,,,8,,7,,6,,5,,4,,2,1,2,1,2h[8:2],,,,
{16}6h[8:2],,,,3,4,3,4,3h[8:2],,,,6,5,6,5,6h[8:2],,,,2,1,2,1,3h[8:2],,,,7,8,7,8,
{16}6h[8:1],,,,4,5,4,5,3h[8:1],,,,5,4,5,4,
{16}6,6,5,5,4,4,3,3,7,7,8,8,1,1,2,2,
{16}7h[8:1],,5,7,5,6,5,6,2h[8:1],,4,2,4,3,4,3,
{16}6h[8:1],,8,6,8,7,8,7,3h[8:1],,1,3,1,2,1,2,
{16}7h[8:1],,5,7,4,6,3,5,2h[8:1],,4,2,5,3,6,4,
{16}6h[8:1],,8,6,1,7,2,8,3h[8:1],,1,3,8,2,7,1,
{8}6-1[8:1],,6/2-6[8:1],,2/8-4[8:1],,8,,2q6[8:1],2,1-5[8:1],1,8-4[8:1],8,7p3[8:1],7,
{16}3,,2,,1,,8,,
{24}1,2,3,7,6,5,
{32}2,3,4,5,7,6,5,4,1hb[8:2],,,,,,,,
{24}7,8,1,2,3,4,5b/1bw5[8:1],,,,,,1b,,,,,,3b/7b,,,,,,
{16}4,5,4,6,4,5,4,7,4,5,4,8,4,5,4,8,4,5,4,7,4-2[8:1],5,4,6,4bx,,,,
{16}5,4,5,3,5,4,5,2,5,4,5,1,5,4,5,1,5,4,5,2,5,4,5,3,5hbx[8:1],,,,7bx-3[8:1]/1bx-5[8:1],,3bx/5bx,,1bx/7bx,,,,
{16}2,6,3,6,2,6,3,6,2,6,3,6,1,6,2,6,1,6,2,6,1hbx[8:1],,,,6bxv1[8:1]/4bxv1[8:1],,2bx/8bx,,4bx/6bx,,,,
{16}1,7,3,5,1,7,3,4,1,8,1h[8:2],,
{24}2,3,4,5,6,7,
{24}1,8,1,8,1,8,2,7,2,7,2,7,3bx/6bx,,,,,,
{16}2-5[8:1],,3,4,2,6,6,,8<5[8:1],,1,1,8,3,3,,4<7[8:1],,2,,14,2,3,4h[8:1],,8,8h[8:2],,,5,4,3,
{16}2/7-4[8:1],,6,5,7,3,3,,1>4[8:1],,8,8,1,6,6,,4x,4x,8,,2-5[12:1],2,5-3[12:1]*-1[12:1],,,,,,,8x,7x,6x,
{16}5x/2xv5[8:1],,3,4,2,7,7,,8<5[8:1],,1,1,8,3,3,,5x,5x,1,,7qq1[4:1],7,4,,,,,,,2x,3x,4x,
{16}5/7v4[8:1],,6,5,7,3,3,,1>4[8:1],,8,8,1,6,6,,
{24}4x,5x,4x,5x,4x,5x,3,6,3,6,3,6,2,7,2,7,2,7,1bx/8bx,,,,,,
{16}2pp4[8:1],,3,4,2,6,6,,8>3[8:1],,7,7,8,6,6,,5v2[8:1],6,7,,5,8,7,6,5,1h[16:3],,,,
{16}27,3,4,5/7qq5[8:1],,6,5,7,3,3,,1<6[8:1],,2,2,1,3,3,,
{16}4,4,8h[8:1],,2pp5[8:2],6<1[16:3],2,,,,,,,,,,
{8}84,8,86,8,8-4[8:1]/4,8,82,2,15,1,13,1,1-5[8:1]/5,1,17,7,
{16}4,8,3,7,2,6,1,5,1,4,1,3,1,2,1,1,
{32}1,2,3,4,5,6,7,8,
{24}1x,5x,1x,5x,1x,5x,2x,6x,2x,6x,2x,6x,3,7,3,7,3,7,
{1}4bq5<4b[4:11],,,
{4},
{4}2-5[8:1],2/8-4[8:1],8/4>1[8:1]*<7[8:1],,
{16}E1,B8,B7,E7,C,,,,E3,B3,B4,E5,C,,,,E7,B6,B5,E5,C,,,,E1,B1,B2,E3,7hx[8:2],,,,,,
{8}2hx[8:2]/5hx[8:2],,,6hx[8:2]/4hx[8:2],,,1hx[8:2]/2hx[8:2],,,
{16}7x,5hx[8:1],,6x,4hx[8:1],,5x,,
{8}12,2,23,3,34,4,45,5,56,6,67,7,78,8,8x/1hx[8:1],,
{8}78,7,76,6,65,5,54,4,43,3,32,2,
{16}2-5[8:1],1,2,1,2x,,,,
{8}7-3[8:1],7,8-4[8:1],8,1-5[8:1],1,2-6[8:1],2,3-7[8:1],3,4-8[8:1],4,5-1[8:1],5,6-2[8:1],6,
{16}8,,7,,6,,5,,
{24}2,3,4,8,7,6,
{32}2,3,4,5,7,6,5,4,
{4}1bs5b[4:2],,7-3[8:1],7,
{8}2hb[4:3]/6hb[4:6],,,,,,,,3,,2,,1w5[8:1],,
{96}1b,Cf,,,,,,,,,,,,,,,,,,,,,,,
{16}3b,5,1,8,2h[8:1],,7,,
{32}2b/8b,,,,2,3,4,56,
{16},7,78,,3,4,1,7,5-1[8:1],,8<5[8:1],8,5,,,,2b,3,4,5,
{16}7-4[8:1],,8,8,7,,1,,2-5[8:1],,1,1,2,,8,,
{16}4,6,2,8,3,5,1,7,
{16}2b,3,4,5,1b,2,3,4,
{32}5hb[8:1]/1b,2,3,,,,6hb[8:1]/2b,3,4,,,,7hb[16:1]/3b,4,5,,7,,7,,
{16}3,5,1,8,4,6,
{32}1bx,8,7,6,5,4,3,2,
{8}1bx>4[8:1]/5bx<8[8:1],,1bx-6[8:1]/5bx-2[8:1],,1bx/5bx,,
{16}4b,6,1,8,3h[8:1],,8,,
{32}17,,,,7b,6,5,43,,,12,,
{16}8,7,6-8[16:2],,2-6[8:1],,6,,2,,
{16}1,8,7,6,4,3,2,1,
{16}7-4[8:1],,5,5,7,,3,,2-5[8:1],,4,4,2,,6,,3,4,1,7,4,6,2,1,3,4,2,5,1,6,8,7,
{16}1x-5[8:1],2x,3x-7[8:1],,1x,,3x,,5x-1[8:1],6x,7x-3[8:1],,5bx,,7bx,,
{16}1x<6[8:1],2x,3x,4x,5x,4x,3x,2x,1x-5b[8:1],,6x-8b[8:1],,1bx,,6bx,,
{24}4,3,2,6,7,8,3,2,1,5,6,7,1,2,3,7,6,5,2,3,4,8,7,6,
{1}5x<4b[4:2]/1xpp5b[4:2],
{16}4,5,2,7,4,5,36,,1-4[8:1],,8-5[8:1],,1,,8,,1hx[8:1],,8,1,6,3,8,1,7-4[8:1],,2-5[8:1],,7,,2,,
{24}8,7,6,5,4,3,27,6,5,4,3,2,18,7,6,5,4,3,27,6,5,4,3,2,
{4}1xs5[8:1]/8xz4[8:1],1bv8-3q5b[4:24]/8bv1-6p4b[4:24],,,,,,,,,,,,,,,,,,,,,,,,,,,
3x-6[16:1],
