&title=メリーゴーランドをぶっ壊せ
&artist=结衣菜
&first=-0.09
&des=因幡 めぐる
&lv_5=14.3
&des_5=因幡 めぐる
&inote_5=(189)
{4},,{2}8x/7x,
2x/1x,{4}7x/5x,6x/4x,
{16}5x/3x,6,7,8,{4}Cf,{8}6<1[8:1],6,4>1[8:1],4,
5-1[8:1],5,2>6[4:1],2,6<2[4:1],6,,Cfh[8:3],
,,,,3>8[8:1],3,5<8[8:1],5,
{4}2h[8:3],6h[8:1],{8}5/3,5/3,,1b-4[8:1],
,1b<5[8:1],{32},,,,5bx,4,3,2,{4}1,3x/4x,
5x/6x,7x/8x,{8}1,1x-5[8:1],,1b/8bqq5b[8:3],
,,{4}3x,{8}1bx,1,1,1,
{4}1/8w4[8:1],8,{8}2,2<6[4:1],2,2/6<2[4:1],
,,,,6<1[8:1],6,4>1[8:1],4,
5-1[8:1],5,2>6[4:1],2,6<2[4:1],6,,Cfh[8:3],
,,,,2>5[8:1],2,8<5[8:1],8,
1-5[8:1],1,6<2[4:1],6,2>6[4:1],2,,Cfh[8:3],
,,,,7<4[8:1],7,8v3[8:1],8,
7<4[8:1],7,,,1,1-5b[8:1],,7/1w5[8:1],
8,1,,,7/3,8<5[8:1]/4>1[8:1],8/4,8q4[8:1]/4q8[8:1],
,,,,2/6,1>4[8:1]/5<8[8:1],1/5,1p5[8:1]/5p1[8:1],
,,,,7b/3b,4,4,4,
4/5,5,5,5,5/1-3[8:1],6,1x/6,6,
5/1-7[8:1],5,1x/5,5,{2}5w1[8:1],
{8}2x,2,{4}7x-1[8:1],{8}4,4,7x-5[8:1],3,
{4}3,3qq7[8:3],3b,{8}6,6,
{4}6-1[8:1],{8}2,2,{4}2-5[8:1],{8}8,8-5[8:1],
4,4-1[8:1],,,6-1[8:1],2-5[8:1],6x,2x,
{2}8w4[8:1],{4}2/6<8[8:1],{8}4,4>2[8:1],
,8<6[8:1],{4}8,{8}2b,5,5,5,
5/4,4,4,4,4/8-6[8:1],3,8x/3,3,
4/8-2[8:1],4,8x/4,4,{2}4w8[8:1],
{8}7x,7,{4}2x<8[8:1],{8}5/2,5,2x>4[8:1],6,
{4}6/2,6pp1[8:3],{8}6b,2,{4}3-6[8:1],
3x,{8}5,5,{4}6b/3b,{16}8-4[8:1],2,8,2,
{4}8,{8}5/3,5/3,{16}1-5[8:1],7,1,7,{4}1,
{8}6/4,6-1[8:1]/4-1[8:1],,6b/4b,,8,2/7-4[8:1],6/3-8[8:1],
{16},,,,5,6,7,8,{4}1qq5[4:3],{8}2,2,
2,3,3,3,4bx,8-5[8:1],8/4-1[8:1],4-7[8:1],
{16},,,,8,1,2,3,{4}4qq1[4:3],{8}7,7,
7,6,6,6,{4}5-8[8:1],{8}1-4[8:1],1-6[8:1],
{16},,,,5,4,3,2,{4}1>5[8:1],8<5[8:1],
8>3[8:1],6/8-4[8:1],2/8pp3[8:3],8/6>3[8:1],
{8},,8-5[8:1],8,,3b,,1-4[8:1],
{4}1,6b,8b/1bh[4:1],{8}Cf,7,
7/1,1<5[4:1],,5>1[4:1],,,{4}6-1[8:1],
2-5[8:1],5<8[8:1],{2}8w4[8:1],
{8}2/6,5/3V14[4:1]*pp4[4:1],,,,,8-5[8:1],8,
,3,4-1[8:1],4,,5pp8[8:3],{4}6,
{8},1>4[4:1],,4q1[4:1],,1q6[4:1],,6-8-2-4-6<6[8:9],
,,,,,,,,,,{4}8bV64b[4:1],
4>8b[4:1],8<4b[4:1],
{32}4pp8<4b[8:5],{4},,,{16},,{32}3,2,1,
8,7,6,5,4,3,2,1,{4}4bx/8bx-4[8:1],{8}8,1,{4}1>5[4:1],
{8}5s1[4:1],6,6,7,7,8<4[4:1],3,3,
2,2>6[4:1],,7h[8:1],,8h[8:1],,1,
{4}1s5[4:1],1b,{8}7,8-4[8:1],1,2/8,
,2,1pp5[8:3],8,{4}7/E3f/B2/B3,8h[8:1],
7,8<5[4:1],{8}5<8[4:1],4,3,2,
1,7h[4:1]/2h[4:1],,,{2}8bx-5[8:1]/1bx-4[8:1],
{8}6,3,{4}6bh[8:1]/3bh[8:1],{16},5bh[8:1]/4bh[8:1],{32},,,,,,,,8x/1x,7b/2b,6b/3b,5b/4b,
,,,,,,,,{4}6-1[8:1],{8}2,3,{4}6-1[8:1],
{8}2,3<6[4:1],,6<1[4:1],,1>4[4:1],,4qq8[8:3],
,8,,6h[2:1],,,1,1-4[8:1],
,,8,8,7/3,7/3,6,6,
5,6q1b[8:3]/5qq2b[8:3],,6b/5b,,,,3b>6b[8:3],
,E6f,,E5f,,7pp4[8:3],,,,,1b-3b[8:1],
1,,5<1[4:1],,1>5[4:1],
,,,1w5[8:1],,,,7/3,
{4}2>5[4:1],5q2[4:1],2>5[4:1],5<8[4:1],
{8}8V24V68[2:1],,,,,,,7-3b[8:1],
1-5b[8:1],7bx,{4}1bx,{16}4/6x,3,2,1,8,7,6,5,
4/8,3/7,2/6,1/5,{4}8>3[8:1]/4<7[8:1],{2}8p4[8:1]/4p8[8:1],
{16}1b,5,1,5,{8}1,{16}3/7,8,1,2,3,4,{4}5-8[8:1],
{8}2-5[8:1],2,,,{4}7-5[8:1],8-5[8:1],
1-5[8:1],2>8[8:3],{2}Cf,
{16}1,5,1,5,{8}1,2xh[4:1]/6xh[4:1],,,{4}7xh[4:1]/3xh[4:1],
{8},6/4,6/4,3,{4}2-5[8:1],6-1[8:1],
3V14[8:3]*pp4[8:3],3b,,6b/3b,
{16}5,6,7,8,1,2,3,4,5/1,6/2,7/3,8/4,{4}1-6[8:1]/5-2[8:1],
{8},,7<4[8:1],7,8v3[8:1],8,{4}5>1[4:1],
1<5[4:1],5,{8}1,1-5[8:1],2,1,
{16},,,,8-4[8:1],1,7,2,{8}8x,1-5[8:1],2,1/8,
,8,{4}8q5<4b[1:1],Cf,{8}4,4,
,4,{4}4,{8}5,5,{4}6h[4:1]/4h[8:1],
{8}4b,8-6[8:1],1-3[8:1],8,1,8-4[8:1],1-5[8:1],8,
{4}1>4[8:1],1b/6b-1b[8:1],2bv5b[8:1],2bx,
{16}7,5,{8}6,{16}2,4,{8}3,{16}8,1,8,1,{32}8,7,{16}6,{32}1,2,{16}3,
{8}8-6[8:1],8,2qq5[8:3],2,{2}Cf,
{8}8-6[8:1],8-2[8:1],{4}8w4b[4:3],{16},,,,,,,,,,,,,,,,6,
5,{8}6,{16}3,4,{8}3,
{16}8-5b[8:1]*-3b[8:1],1,8,1,{4}8b,{8}Cf/2-8[8:1],2,7-3[8:1],7,
{2}4w8[8:1],{16}6,5,{8}4,{16}1,2,{8}3-8[8:1],
{2}8w4[8:1],{8}6/Cf,7,8/1-5[8:1],1,
{4}1-3[8:1],6<2[4:1],{16}4h[4:1],,,,,3,4,5,
6,7,8,1,2,3,4,5,{4}6/Cf,{8}6-1[8:1],6,
2-5[8:1],2,,8-4b[8:1],,2<5[4:1],{4}2,
,8>4[4:1],{2}4<8[4:1],
{16}1,2,3,4,5,6,7,8,{8}1,8x-4b[8:1],,8b/2-6b[8:1],
,2b/5h[4:1],,,Cf/6>4[8:1],6,1>3[8:1],1,
,8>4[4:1],,4<8[4:1],{4}4,2-6b[8:1],
{2}2-8[8:1]*-4[8:1],{4}Cf/1>4[8:1],7/1<6[8:1],
3/1w5b[8:1],1b,Cf/3>7[4:1],7<3[4:1],
{32}3>7[4:1],,,,,,,,,,,,,,,,,6bx,5bx,4bx,3bx,2bx,1bx,8bx,{4}7bx-4[8:1],
{8}1-4[8:1],1,{4}8-5[8:1],{8}3>7[4:1],3,{4}7<3[4:1],
{32},,,,,,,,7bx,E7,E6,E5,,,,,2bx,E3,E4,E5,,,,,8bx,E8,B7,B6,1bx,E2,B2,B3,
7,6,5,4,,,,,2,3,4,5,,,,,8,7,6,5,4,3,2,1,{4}8v7[8:1]/4v3[8:1],
Cf,{16}8/4,7/3,6/2,5/1,{2}4h[2:3]/8h[2:3],
{1},{16},{32}E5/E1,
E6/E2,E7/E3,Ch[32:15],
E
