&title=飛翔
&artist=香椎モイミ feat. ゲキヤクV
&first=0.015
&des=CeNx
&lv_5=14+
&inote_5=(169),,,,,,,,{4}1>5[2:1],5,6,7,8<4[2:1],4,3,2,1>8[1:1],{8}6,6h[8:9],,,,,,,,,1,,2,,{4}3V17[2:1],7,6,5,4V61[2:1],1,2,{8}3,,4>5[1:1],,4h[8:6],,,,,,,,3,,2,,1,,2/8<4[4:2],,1,,2,,3,,3>7[2:1],,4,,5,,6,,6>2[2:1],,1,,2<5[4:3],,1,,8h[4:1],,,,4,,3,,2-6[4:1],,1,,8-4[4:1],,1,,3>8[4:1],,8<5[4:1],,5,,4,4h[8:17],,3,2h[4:7],{1},,
{16},,27,,3,4,,6,5,,4v7[8:1],,3,,2,,1,,82,,5,,2,3,4,,6,5,4,,18,,27,,36,,7,5,,2,4,,5v2[8:1],,6,,7,,8,,1b,,1b,,8,7,6,,3x,3,2x,2,1x,1,8x,8,1b/7b,,3,4,,7,8,,16,,4,,38,,5,,46,,8,,1-5[8:1],2,3,,4-8[8:1],3,2,,1,,3,,46,,2,1,,6,5,,38,,6,,17,,3,,4,5,3,6,2,7,1,8,2-6[8:1],7,1,8,2b,,,,5h[8:1],,,,5h[8:1],,,,4,,4h[8:1],,,,3-5[8:1],,,,1-3[8:1],,,,7-1[8:1],,,,5,,5,,,,4h[8:1],,,,4h[8:1],,,,5,,5h[8:1],,,,6-4[8:1],,,,8-6[8:1],,,,2-8[8:1],,,,4,,4,,,,5x/3hx[8:1],,,,1h[8:1],,,,7,,7h[8:1],,,,6-1[8:1],,,,4-7[8:1],,,,2-5[8:1],,,,1,,1,,,,8<5-1[8:4],,,,4,,4h[8:5],,,,,,,,,,2-5<8b[2:1],,,,1,,1,,2x,3,4,5,6,7,8,1,2bx/6bx,,,,8-4[8:1],,7,,3-8[8:1],,2,,7-4[8:1],,6,,1-4[8:1],,1-6[8:1],,,,,,,,37,,37,,,,7-4[8:1]/2,,,,1-5[8:1],,2,,8-3[8:1],,7,,4-8[8:1],,5,,7-4[8:1],,7-2[8:1],,,,,,,,15,,15,,,,6b-1[8:1],,,,4-8[8:1],,3,,2-6[8:1],,1,,8-4[8:1],,7,,5v2[8:1],,5v8[8:1],,,,,,,,37,,37,,28,,1>6[4:1],,,,7,,8<3[4:1],,,,2,,1<2b[8:3],,,,1,,,,8,,8,,7x,6x,5x,4x,3x,2x,1x,8x,7b/3b,,4,5,,6,5,,7-4[8:1],,8,,17,,2,,3,3,,6,6,,4,,2-5[8:1],,1,,28,,7,,6,,2,1,,8,1,,3,,4/5x,,5/6x,,7,,1-5[8:1]/8x,,2,,1/8-4[8:1],,7x,,2-5[8:1]/8,,3,,2x/7,,8,,1b/7b,,2,4,,6,4,,3-8[8:1]/5,,1,,36,,7,,5,5,,2,2,,7,,6-1[8:1]/4,,8,,36,,2,,4x,,7,5,,3,5x,,2,,1/8x,,8/7x,,6,,5/4x,,4/3x,,2,,1/8x,,2,7,2,7,2,7,2,7,1b-5[8:1],,2,,3,,4,,8x-4[8:1],,1,,2,,3,,7x-3[8:1],,8,,1,,2,,6x-2[8:1],,7,,8,,1,,5x-1[8:1],,6,,7,,8,,4x-8[8:1],,5,,6,,7,,3x-7[8:1],,4,,5,,6,,18,,2,,34,,2,,1b>4[8:1]/8,,8,,7,,6,,5<8[8:1],,4,,3,,2,,1>4[8:1],,8,,7,,6,,54,,6,,78,,6,,5V71[4:1]/4,,2,,3,,4,,5V31[4:1],,8,,7,,6,,5,,3,4,2,,6,5,7,1,7,1,{32}7,6,5,4,3,2,1,8,7b/3b,,,,{16}1,1,,6,6,,4-8[8:1]/5,,26,,45,,7,,7,,6,5,4,5,6,,3-7[8:1],,5,,3,,1,,8-4[8:1],,4-1[8:1],4,,5,5,,6-1[8:1],,5,,46,,3,,2,,7,8,1,8,7,,46,,28,,45,,17,,4/8b-4[8:1],,5,5,,1,1,,5-1[8:1],,37,,45,,2,,2,,3,4,5,4,3,,6-2[8:1],,4,,6,,8,,1-5[8:1],,5-8[8:1],5,,4,4,,3-8[8:1],,4,,53,,6,,78,,2,3,45,,8,7,65,,2,2,8,7,6,5,2b,1,3,8,4,7,5,6,4,5,3,4,2,5,1,6,8,7,4,6,3,5,2,4,3,1,2,8,1,7,8,6,5,6,4,7,3,8,2,1,2,4,3,5,4,6,5,7,8,6,1,5,2,4,3,5,1,8,2,7,3,6,4,5,2b-6[8:1],,1,8,2,,7,8,1-6[8:1],,2-5[8:1],,1,,2,,7-3[8:1],,8,1,7,,2,1,8-3[8:1],,7-4[8:1],,8,,7,,2,,8,1,7,,87,16,25,,12,38,47,,6,,2,2,4,4,6,6,8,8,1w5[8:1],1,7,7,1b/Cf,,,,3-5[8:1]/7,,7h[8:1],,,,7,,2-4[8:1],,6h[8:1],,,,6,,1-3[8:1],,5h[8:1],,,,5,,8,,4,,35,,35,,6-4[8:1]/2,,2h[8:1],,,,2,,7-5[8:1],,3h[8:1],,,,3,,8,,8,,17,26,35,,4,5,3,6,2,7,1,8,2b/7b,,2-5[8:1],1,,1,2,,1,2,3,,1,8,7,,56,,3,,2,2,5,,3,3,7,,46,,37,,28,,7-4[8:1],8,,8,7,,8,7,6,,8,1,2,,34,,6,6,3,3,8,8,1-5[8:1],1,7,7,1b,,,,4-6[8:1],,4h[4:1],,,,,,4-2[8:1],,4h[4:1],,,,,,4-6[8:1],,4h[4:1],,,,,,4-2[8:1],,4h[4:1],,,,,,5-7[8:1],,5h[4:1],,,,,,5-3[8:1],,5h[4:1],,,,,,5-7[8:1],,5h[4:1],,,,,,5,,4,,B6,,B3,,6b>3[8:1],,6h[4:1],,,,,,6<1[8:1],,6h[4:1],,,,,,6>3[8:1],,6h[4:1],,,,,,6,,6,,5,,4,,3-6[8:1],,3h[4:1],,,,,,3-8[8:1],,3h[4:1],,,,,,7,6,5,4,1,2,3,4,1,8,7,6,4,3,2,1,8b/7b,,6,5,6,,3,4,3,,2,2,5,3,6,4,5-8[8:1],,8-4[8:1]*-3[8:1],,5,,,,,,24,,35,,46,,57,,2,1,2,,7,8,7,,6,6,1,7,2,8,1-5[8:1],,5qq2[3:1]*<8[8:1],,1,,,,,,,,8,,7,,3b/6b,,7,7,5,,7,7,1,,7,7,4,6,3,5,2-5[8:1],,5<8[8:1]*-1[8:1],,2,,,,,,36,,36,,27,,18,,2,2,4,,2,2,8,,2,2,5,,2,2,7,7,5,5,4,4,2,2,{16}8,7,62,3,47,6,51,2,{16}8bh[8:1]/3b,,,,8h[8:1],,,,8h[8:1],,,,8h[8:1],,4,,8h[8:1],,2,,8h[8:1],,5,,8h[8:1],,3,,8h[8:1],,6x,,5x,,4h[8:1],,5,,4h[8:1],,1,,4h[8:1],,6,,4h[8:1],,3,,4h[8:1],,7,,4h[8:1],,5,,4,,36,,27,,1bh[8:1]/8,,,,1h[8:1],,,,1h[8:1],,,,1h[8:1],,5,,1h[8:1],,3,,1h[8:1],,8,,1h[8:1],,4,,1h[8:1],,2,,1,8,1,8,1,,2,4,3,,6,5,,7,8,,2x,1,2,1,2x,,38,,4/5x,,45,,3x/6,,27,,8/1b,2,3,4,7,6,5,4,2,3,4,5,8,7,6,5,2,3,8x,7,2,3,7x,6,2,3,6x,5,4,3,2,1,4,3,2,1,7,6,5,4,8,1,2,3,5,6,7,8,2,3,4,5,1,2,3,4,1/5x,,1/5x,,26,,37,,4/8b,7,6,5,2,3,4,5,7,6,5,4,1,2,3,4,6,7,4x,3,6,7,3x,2,6,7,2x,1,8,7,6,5,8,7,6,5,4,3,2,1,3,2,1,8,2,1,8,7,26,,45,,37,,45,,6b/8b,,2b/4b,,5b/7b,,1b>1[36.97#16:53]/3b,,,,,,,,,,,,,,,,,,{8}E6,,B5,,B4,,E4,,B6,,B7,,B2/E3,,B3,,E7,E6,,E3,E4,,B7,B6,,E1,C,E5,,B2,E4,,E6,,E4,,{64}E7,B6,,,{16},{8}C,E3,,E6,E5,,E2,E1,,E7,E6,,B1,B2,B3,B4,B5,B6,B7,B8,,,,E5,,E4,,E3,,B5,,{64}B8,E8,,,{16},{8},E7,,B2,,B7,,B1/B2,,B8/B7,,B2/B3,,A3,A4,A5,A6,D7,C,D3,,,,{64}E1,B8,B1,,{16},{8},,,E7,,E5,,B1/B2,,E4,,E3,,C,,B6/B5,,E7,,C,A2,A3,A4,A5,A6,A7,A8,D2,,,,,,,,
2b/8b,{16}4,3,2-5[8:1],1,8,,2/7-4[8:1],,8,,27,,1,,87,,2,3,4-8[8:1],5,6,,4/6>3[8:1],,7,,62,,1,,57,,7,6,5-8[8:1],4,3,,1/5-2[8:1],,3,,5/1-5[8:1],,7,,1/6-3[8:1],,7,,6/2-6[8:1],,1,,2/8-4[8:1],,7,,18,,2,,3b/5b,,1,2,3-7[8:1]/4,5,6,,3/8-4[8:1],,1,,82,,1,,12,,8,7,6/5-1[8:1],4,3,,5/3<6[8:1],,2,,38,,7,,78,,1,2,34,,45,,8,7,56,,45,,3,2,18,,47,,35,,68,,78,6,45,3,12,8,76,5,{16}8b-4[8:1]/4,,2,2,8,,2,,7-3[8:1],,1,1,7,,1,,6-2[8:1],,8,8,6,,8,,87,,6,,54,,3,,2-6[8:1]/1,,4,4,2,,4,,3-7[8:1],,5,5,3,,5,,4-8[8:1],,6,6,4,,6,,71,,6,,53,,2,,1b>4[8:1]/8,,7,7,1,,6,,5<8[8:1],,3,3,5,,2,,3<6[8:1],,1,1,3,,7,,54,,7,,81,,3,,1/7-3[8:1],,8,8,1-6[8:1]/7,,2,,1/4-8[8:1],,5,,4/1,,3,,45,,3,4,25,,6,5,47,,8,1,{32}2,3,4,5,6,7,8,1,{16}4b-8[8:1]/2b,,1,1,4-2[8:1],7,7,,4-7[8:1],,7-3[8:1],,4,,1,,8-4[8:1],,5,5,8-3[8:1],2,2,,8-5[8:1],,5-1[8:1],,8,,3,,2-7[8:1],,6,6,2-6[8:1],4,4,,2-5[8:1],,5-1[16:1],,2,,8,,7,,6,6,3,3,8,,1-6[8:1],2,3,4,5<8[8:1]/1,4,3,2,1bx/5b,,3x,3x,1-5-8[4:1],2,2,,1-4-7[4:1],,2,,1,,C,,5x,,6x,6x,8-4-1[4:1],7,7,,8-5-2[4:1],,7,,8,,C,,4x,,3x,3x,1-6-3[4:1],2,2,,1-4-7[4:1],,2,,1,,C,,8,,7,7,2,,3,3,1v4[8:1],8,7,6,51,6,7,8,1b/2b,3,8,4,7,5,6,6,4,3,2,1,84,7,6,5,1/4,1,2,8,3,7,4,4,6,7,8,1,26,3,4,5,6/3,3,4,2,5,1,6,6,1,2,3,4,51,6,7,8,16,6,5,7,4,8,3,3,8,7,6,5,48,3,2,1,8b/2b-6[8:1],,1,8,2-4[8:1],,8,7,2,,7,6,15,,28,,1/7-3[8:1],,8,1,7-5[8:1],,1,2,7,,2,3,84,,71,,26,,87,16,25,,18,27,36,,12,83,74,,47,,6,6,4,4,2,2,8,8,{32}1,2,3,4,5,6,7,8,15,4,3,2,1,8,7,6,{2}5/1w5[84.5#16:1],{64}1b>1[2:3]*<1[2:3],E1/E2/B1f,B2/B8,E3/E8,B7/B3/C,E7/E4,B6/B4,B5/E5/E6,{8},,,,,,,,,,,,,,,
Ch[4:5],,,,,,,,,,{4}E2,E3,E4,Ch[1:1]/E7f/B6/B7,,,,6h[2:1],,4h[2:1],,{8}7h[8:3],,,5h[8:3],,,4,,2h[8:3],,,4h[8:3],,,5,,7hbx[4:6]/Cf,,,,,,,,,,,,3h[2:1],,,,Ch[4:5],,,,,,,,,,E3,,E4,,E5,,A7/E7/B7f/Ch[1:1],,,,,,,,6h[2:1],,,,2h[2:1],,,,4h[1:1],,,,,,,,5-7>8v6-1[4:3]*-3>2v4-1[4:3],
