&title=I.M.I
&artist=打打だいず/月乃
&first=0.04
&des=satomi
&lv_5=14.4
&des_5=satomi
&inote_5=
(192){4},,,,{1}4/6h[1:1],
{4}4>7[2:1],4,,,{1}3h[1:1],
{4}6-8-5-2-4[4:3],6,,,{1}1h[1:1],
{4}5<2[2:1],5,,,{1}Ch[4:7],
{4}B1,B7,B3,B5,
,6,2,8h[1:1]/4-8<6-2>4[4:3],
{1}4,
{4}3,7,1h[1:1]/5-1>3-7<5[4:3],5,
,,,,8h[16:9]/7h[16:9],
{24},,,,,,,,,,,,7/8,6/1,5-8[8:3]/2-7[8:3],4/3,{4},,,{16},{48},{4}3V52-6-1-7[0.625##2.1875]/8b-4[4:1],
{1}8b,
{8},,,,,,,,,,2/8-5[6:1],
7,{4}8/1>3b[8:1],1pp3[8:1],
8<5[4:1],5b-1[4:1],{2}3h[4:1],
{8},,7/1-4[6:1],2,{4}1/8q5[8:1],8,
1>4[4:1],4b-8[4:1],{2}6h[4:1],
{8}2,2,2,2,2/7b,2,2/6b,2,
5/1b,5,5,5,5/7b,5,{4}3b/5/A4h[1:2],
A8h[4:7],B4h[2:3],{2}B8h[4:5],
,,Cf/B8/B1/B2/B3/B4/B5/B6/B7,
{16}8,7,6,5,1/4,2,3,4,
5,6,7,8,1/4,2/5,6/3,7/4,{4}8-2[8:1]/5-2[8:1],8/5,
{16}1,2,3,4,8/5,7,6,5,4,3,2,1,8/5,7/4,3/6,2/5,
{4}1-7[8:1]/4-7[8:1],1/4,{8}2-4[8:1]/1-5[8:1],1/2,{4}2/1,
6h[8:1],6/3h[8:1],3/6h[8:1],6/2h[8:1],
2/7h[8:1],7/2h[8:1],2/1h[8:1],1/2h[8:1],
{8}2,{16}3,8,4,7,5,6,3,4,2,1,2,1,3,1,
4,1,5,1,4,3xs7s3[16:7],,,,,,,,,,,,,,,{8}8v5[8:1],
7,8/1v3[8:1],2,{4}1/8,
7-4[8:1],7-1[8:1]/2-6[8:1],2V84[4:1],{16}7b,6,5,4,
,,,,{8}1v4[8:1],2,{4}1/8v6[8:1],8/1,
2-5[8:1],2-8[8:1]/7-3[8:1],7V15[4:1],{16}2b,3,4,5,
{1}A3h[4:3],
{8}1x-5[8:1]/2x-6[8:1],,,,,4/7h[8:1],3,2/7h[8:1],
{4}1-5[16:3],8h[8:1]/1-3[8:1],7h[8:1]/1-5[16:3],1/6h[8:1],
{8}1-5[8:1],2,1/8-4[8:1],7,8/1-5[8:1],2,{4}1/8/Cf,
,6<3>6[2:11],{16},,,,,,,,3,
2,{8}1h[8:7],{1},{4},,{16}6,
7,{8}8h[8:5],
,,,,,,5p4[8:7],5h[8:5],
,,,,,,,,,,1,
1,2,2,3,3,
{4}1h[1:1],{8}8,7,7,7,6,6,
8h[4:3],1,2,2,2,3,3,{16}1b,2,
{4}3h[8:1],{16}6b,7,{8}8h[8:1],{16},,2b,1,{4}8h[8:1]/7h[8:1],
{16},,,,8,7,6,5,{12}4,5,3,6,2,7,
{4}4-2[8:1],7/4-6[8:1],1/4-8[8:1],{16}8b/4q4[4:1],7,6,5,
{4},,{12}5,4,6,3,7,2,
{4}5-7[8:1],2/5-3[8:1],8/5-1[8:1],{16}1b/5p5[4:1],2,3,4,
,,,,,,,,{8}1-3[8:1],7-5[8:1],1-4[8:1],7-4[8:1],
1b,7b,,,4,4/5,4,3/4,
{4}3xq7[4:1],7xq3[4:1],3x<7[4:1],7x>3[4:1],
3x<7>3[4:3],{24}D4,A4,D5,A5,D6,A6,D7,A7,D8,A8,D1,A1,D2,A2,D3,A3f,,,,,,,,,,,,,,,{12}1,
8,1,8,1,8,
{4}1-6[8:1],{8}5/1-4[8:1],4,5/1-5[8:1],6,{4}1w5[4:1],
{8},,,,5,6,4,2-4[8:1]/1-5[8:1],
,1-7[8:1]/2-6[8:1],,1-5[8:1]/2-4[8:1],,1-7[8:1]/2-6[8:1],,2b/1b,
,,4,6,3,7,{4}3-1b[12:1]/8-6b[12:1],
8/3,{8}5/1p4[4:1],5/1,{16}5/1,,,,,3,2,1,
{2}8p3[8:1],{16}3x,4x,3,4,3,5,2,5,
{4}2q7[4:3],2/7,{16},,,,,,,,,,,,,,1,
1,8,8,,,{4}7bh[4:7],
{1},{4},,{32}1,
2,3,4,5,6,7,8,1,2,3,4,5,6,{48}7,8,,{1}1b-6-3-8b[4:7],
{2}6h[8:3],6,
{1}5-2-7-4b[4:7],
{4}2h[8:5],,,2,
3p2[4:3],3,,,6q7[2:1],
6,{16},,,,,,,,8b/2b,
7,6,5,2b,3,4,6b,5,3b,4,7b,6,5/2b,3,4/8b,
7,6/1b,2,3/8b,7,6,5,4,{24}2v5[4:1],1,2,1,2,1,{4}2,
{8},8/2-4[8:1],3,2/8-6[8:1],7,8/2-4[8:1],3,2/8-6[8:1],
7,8/2,{4}3,{16}8xv5[4:1]/2xv5[4:1],3/7,{8}6/4,{4}8b/2b,
{8},1/7-5[8:1],6,7/1-3[8:1],2,1/7-5[8:1],6,7/1-3[8:1],
2,1/7,7,7,{16}1xp4[4:1]/7xqq5[4:1],6/2,{8}5/3,{4}1b/7b,
{24},,,7/8h[8:1],6,5,{4}4,{24}2/1h[8:1],3,4,5,,,,,,7/8b,6,5,
{4}4,{24}2/1b,3,4,5,,,,,,,,,{8}7/3h[8:1],7,
7/4h[8:1],7,7/5h[8:1],7,7,2/4h[8:1],2,2/5h,
2/6,2/7h,8/2,2/7h,2/6,2/5h,2<5[1:1]/5<2[1:1],5b/2b,
{1},{4},,,{16},6,
7,8,
{8}2/1<5[4:1],2,2,3,{4}3,{16}2,6,7,8,
{8}2/1-5[16:3],3,2,3,{4}2,2b/6b,
7/8h[16:1],2/1h[16:1],{24}2b,3,4,5,6,7,8x/1x,2,3,4,5,6,
{4}7V13[4:1],3V57[4:1],{8},,,,2h[4:1]/1h[4:1],
,,3/8,8h[4:1]/7h[4:1],,,1/6,
4h[4:1]/3h[4:1],,,5/2,{2}5h[4:1]/6h[4:1],
{24}4/5b,3,2,1,8,7,6,5,4,3,2,1,8,7,6,5,4,3,2,1,8,7,6,5,
4,3,2,1-5b[8:3],8,7,{4}6b/5b,{8},,,,3/2,
4h[8:1]/1h[8:1],,5/4,{4}6h[8:1]/3h[8:1],{8}5/6,4h[8:1]/7h[8:1],
,2/3,{4}4-7[8:1]/1-4[8:1],{16}1b-3-5-7-1b[2:7]/4b-6-8-2-4[2:7],A4/A7/E5/E4/E8/E7/B4f/B7f,{1},,,{4},,,{8},{16}3,
7,3,7,3,6,4,6,
4,6,4,6,4,6,4,6,4,6,4,6,3,7,3,7,
3,8,2,8,2,1,1,1,1,1,1,1,1,1,1,1,
{1}1bh[4:5],
{16},,,,,,,,1bx,8,7,6,5,4,{8}7-1[8:1],
3,7-5[8:1],3,7,3,{16}3V17[2:1],6b,5,4,6b/3,5,
4,3,,,,,,,8bx,1,2,3,4,5,{8}2-8[8:1],
6,2-4[8:1],6,2,6,{16}6V82[2:1],3b,4,5,3b/6,4,
5,6,,,,,,,{8}6/3,2,5/3,7,
6/4,7b,5/2,8,7/4,2,7/3,5b,
{2}7-1[8:1]/1-3[8:1],{16}7x,8x,6x,8x,5x,8,4,8,
4,8,4,8,{8}4<1[2:1],4,4qq2[4:1],4,{4}4,
{16},,,,4b,8,3b,7,2b,6,{8}1b,{24}1/5,2/6,3/7,8/4,{12}5bv2b[8:15]/1b-6[8:15],
{1},,{4},,{2}Cfh[2:7],
B2h[1:3],B7h[2:5],
{1}B6h[1:2],
B3h[1:1],
8bxz4[1.25##0.1562],
E
