&title=Qliphothgear
&artist=Juggernaut.
&first=0
&des=CR
&lv_5=14
&inote_1=(212)
&inote_5=(212)
{32},{16},,,,,,,,5b<3[16:20]/3h[16:8],,,,,,,,,,,,,,,,,5h[2:1],,,,,,,,,,,,,,,,4>6[16:20]/6h[2:1],,,,,,,,,,,,,,,,4h[2:1],,,,,,,,,,,,,,,,5v8<6-2[4:5]/4h[4:1],,,,,,,,4h[4:1],,,,,,,,1h[4:1],,,,,,,,1h[4:1],,,,,,,,4v1>3-7[4:5]/5h[4:1],,,,,,,,5h[4:1],,,,,,,,8h[4:1],,,,,,,,8h[4:1],,,,,,,,3h[1:1],,,,,,,,A8/E8/B8,,,,,,,,5h[1:1],,,,,,,,A2/E2/B2,,,,,,,,4h[1:1],,,,,,,,A7/E7/B7,,,,,,,,6h[1:1],,,,,,,,A1/B1/E1,,,,,,,,3>7[2:1],,,,,,,,A5/E6/B5,,,,,,,,6<2[2:1],,,,,,,,A4/B4/E4,,,,,,,,4>8[2:1],,,,,,,,A6/B6/E7,,,,,,,,5bpp1[2:1]*qq1[2:1],,,,,,,,,,,,,,,,2b/7b,,,,4,5,4,5h[16:5],4h[4:1],,,,,,,,36,,,,4,5,3,6,4-8[8:1],5,3,6,4b,,,,6,,,,6/4x,,,,65,,,,6,,4h,,6,,3h[16:1],,6,,2h[12:1],,6,,1h[8:1],,6,,,,34,,,,3/5x,,,,34,,,,3,,5h,,3,,6h[16:1],,3,,7h[12:1],,3,,8h[8:1],,3,,,,6,,6,,4,,4,,5,,5,,3,,3,,75,,7,,46,,4,,53,,5,,24,,2,,7x,8,6,1,5,2,4,3,6x,5,7,4,8,3,1,,{32}2x,3x,4x,5x,6x,7x,8x,1x,2x,3x,4x,5x,6x,7x,8x,1x,{16}2xb-6[8:1],,,,,,,,4b-1[8:1]/8b-5[8:1],,,,,,,,2x/7x,,,,3x,,3,4,3,,3,5,3,,3,4,3,,3,5,3,,,,4b-1[8:1]/6b-1[8:1],,,,,,,,75,,64,,53,,2-5-3-8[2:1]/4,,,,,,5,,,,6-1[8:1],,,,,,,,4bv1[8:1]*v7[8:1],,,,,,,,3b/8b,,,,6x,,6,5,6,,6,4,6,,6,5,6,,6,4,6,,,,1v6[8:1]*v3[8:1],,,,,,,,5-1[8:1],,1<3[8:3],,5,,2xb,,,,2xb,,,,,,1xb-4[8:1]*-6[8:1],,,,,,,,5bw1[8:1],,,,,,,,{12}3x,4,2,6x,5,7,2x,1,4,7x,8,5,2x,2,4,7x,7,5,{16}Ch[16:7],,,,,,,8h[16:3],,,4h[16:3],,,7h[16:3],,,3h[16:3],,,6h[16:3],,,2h[16:3],,,{12}8,4,6,1,5,{16}3b-1[8:1]*-5[8:1],,,,,,,,4b/7b,,,,2x,,2,4,2,,2,8,2,,2,4,2,,2,8,2,,,,4v7[8:1]*v1[8:1],,,,,,,,3v8[8:1],,8<2[8:3],,3,,1xb,,,,1xb,,,,,,8bw4[8:1],,,,,,,,6<2[4:1]/2h[2:1],,,,,,,,{32}D3,A3,D4,A4,D5,,{16},74,,7h[8:5]/4>7[8:3],,,,,,,,,,{32}D7,A6,D6,A5,D5,,,,{16},,,,37,,5,4,6,,2,,7-3[8:1],,1-5[8:1],,7,,1,,{32}8,7,6,,,,,,2,3,4,,,,,,{16}1-5b[8:1]/5xh[8:2],,,,,,,,7>3[4:1]/3h[2:1],,,,,,,,{32}D4,A4,D5,A5,D6,,{16},25,,5h[8:5]/2<5[8:3],,,,,,,,,,{32}D5,A4,D4,A3,D3,,,,{16},,,,2-5[8:1],,7-1[8:1],,2,,7,,3V15[8:1],,5-3[8:1],,3x,,,,8-6[8:1],,2-4[8:1],,8,,2,,1-5b[8:1],,5,,1x,,,,6<2[4:1]/2h[2:1],,,,,,,,{32}D3,A3,D4,A4,D5,,{16},74,,7h[8:5]/4>7[8:3],,,,,,,,,,{32}D7,A6,D6,A5,D5,,,,{16},,,,26,,4,5,3,,7,,2-6[8:1],,8-4[8:1],,2,,8,,{32}1,2,3,,,,,,7,6,5,,,,,,{16}8-4b[8:1]/4xh[8:2],,,,,,,,7>3[4:1]/3h[2:1],,,,,,,,{32}D4,A4,D5,A5,D6,,{16},25,,5h[8:5]/2<5[8:3],,,,,,,,,,{32}D5,A4,D4,A3,D3,,,,{16},,,,8h[8:1]/6h[8:1],,,3h[8:1]/5h[8:1],,,1h[8:1]/2h[8:1],,,4h[8:1]/7h[8:1],,,86,,15,,24,,4,,45,,5,,57,,7,,71,,1,,1bw5[8:1],,,,,,,,7-3[8:1],,5,,7,,2-5[8:1],,4,,2,,8q4b[8:1],,6,,8-6[8:1],,2,,8,,4,,3-1[8:1],,5,,3,,7v4[8:1],,2,,7,,1-5[8:1],,6,,1,,8v3[8:1],,4,,8,,5v2b[8:1],,7v4b[8:1],,5,,7,,1-3[8:1],,,,1-5[8:1]/6,,,,18,,,,7/4x,,63,,5-1[8:1]/2,,,,5-7[8:1]/2,,,,54,,,,3x/8,,2,,6,5,6,5,8,1,8,1,4,3,4,3,8,2,8,2,5,3,5,3,7,1,7,1,{32}6,5,4,3,2,1,8,7,6,5,4,3,2,1,8,7,{16}6b>6-3-8-4-1-6b[1:2]/2hb[1:1],,,,,,,,,,,,,,,,,,,,,,,,,,,,,,,,6b-3>3b[4:5],,,,,,,,,,,,,,,,Chf[2:1],,,,,,,,,,,,,,,,6V84[8:4]*V84[8:4],,,,,,8xh[8:3],,,,,,,,,,3V15[8:4]*V15[8:4],,,,,,1xh[8:3],,,,,,,,,,2x/6,,,7,,,4,,3/5x,,,,1-5[8:1]*-5[8:1],,,,1xh[8:4],,,,,,6,7,8xw4b[8:1],,,,,,,,2h[4:1],,,,6h[4:1],,,,4h[4:1],,,,8,,8h[4:1],,,,3,,,,6,5,8,,2,,2,,4,,4h[4:1],,,,1,,8h[4:1],,,,2h[4:1],,,,6h[4:1],,,,5h[4:1],,,,4h[4:1],,,,3h[4:1],,,,8,,8qq4[2:1]*qq4[2:1],,,,,,2xh[8:3],,,,,,,,,,1pp5[2:1]*pp5[2:1],,,,,,7xh[8:3],,,,,,,,,,7x/3,,,2,,,5,,4x/6,,,,8-4[8:1]*-4[8:1],,,,8xh[2:1],,,,,,3,2,1xp5[8:1]*q5[8:1],,,,,,,,3b/6b,,,,8,1,8,1h[16:5],8h[4:1],,,,,,,,27,,,,8,1,7,2,8-4[8:1],1,7,2,8b,,,,2-4[8:1]/6-8[8:1],,,,2-6[8:1],,,,2,,,,7q3[8:1],,4-8[8:1],,7,,4,,,,5,3,6-2[8:1],,2V86[8:1],,6,,3,,4,,,,5v2[8:1],,1-7[8:1],,5,,1-4[8:1],,,,1-6[8:1]/6,,,,1>4[8:1]/4,,,,1<6[8:1]/6,,,,1b/4,,,,2,1,3h[8:1]/8h[8:1],,,4h[8:1]/6h[8:1],,,2h[8:1]/5h[8:1],,,1h[8:1]/7h[8:1],,,3xb/6xb,,,,1h[8:1]/6h[8:1],,,3h[8:1]/5h[8:1],,,4h[8:1]/7h[8:1],,,2h[8:1]/8h[8:1],,,3xb/6xb,,,,18,,5,6,,3,4,,7-1[8:1]/1-4[8:1],,,,7/1x<5b[4:1],,,,1xh[4:1],,,,,,2,3,4xw8[8:1],,,,4b,,,,6-3[8:1]/2-5[8:1],,,,2/6-1[8:1],,,,6,,,,3v8[8:1],,7v4[8:1],,3,,7,,,,2,1,3>1[8:1],,8-5[8:1],,3,,8,,4b,,,,3b/7b,,1bv3[8:1]/5bv7[8:1],,,,1b/5b,,,,8b>3[8:1]/2,,,,8b<5[8:1]/6,,,,8b-4[8:1]/3,,,,8b/5,,,,2b/5b,,1b/7b,,3,4,3,,2,1,2,3,4,5,8,7,6,5,4x/2xb,,6,5,6,,7,8,7,6,5,4,1,2,3,4,7-4[8:1],,,8,7,,1,,2-8[8:1]*-6[8:1],,,,2b,,,,4h[8:3]/5h[8:3],,,,,,63,27,1-5[8:1]/8-4[8:1],,,,1b/8b,,,,3b>3v4b[4:6]*<3v2b[4:6],,,,,,,,,,,,,,,,,,,,,,,,,,,,,,,,1b/5b,,,,3b/Cf,,7b/Cf,,,,2b-4[8:1]/6b-8[8:1],,,,2b-8[8:1]/6b-4[8:1],,,,2b-5[8:1]/6b-1[8:1],,,,2b-6[8:1]/6b-2[8:1],,,,2b/6b,,,,4x,3,5xh[8:1],,2,6xh[8:1],,1,7xh[8:1],,2,6xh[8:1],,1,5xh[8:1],,2x,7x,3xh[8:1],,6,2xh[8:1],,5,1xh[8:1],,6,2xh[8:1],,5,3xh[8:1],,6,,18,,4,3,,5,6,,2-8[8:1]/8-5[8:1],,,,2x/8>4b[8:1],,,,8h[8:2],,,,,,7,6,5w1[8:1],,,,5b,,,,2v5[8:1]/7,,,,2/8v3[8:1],,,,8/1v6[8:1],,,,1/7,,7-2[8:1]*-4[8:1],,,,7x,,,,5,3,6-8[8:1],,2-4[8:1],,6,,2,,5b,,,,2b/6b,,1b-4[8:1]/4b-6[8:1],,,,1b/4b,,,,8b-2[8:1]/3,,,,8b-6[8:1]/5,,,,8b-4b[8:1]/3,,,,8b/5,,,,3b/7b,,1b/5b,,7,8,7,,6,5,6,7,8,1,4,3,2,1,8/4xb[8:1],,2,1,2,,3,4,3,2,1,8,5,6,7,8,2-5[8:1],,,1,2,,8,,7-2[8:1]*-5[8:1],,,,7b,,,,4xbh[8:3],,,,,,35,26,1v4[8:1]/7v4[8:1],,,,1b/7b,,,,8bw4b[8:1],,,,,,,,2b/6b,,,,{32}5h[8:1],,,,B1,B2,,,6h[8:1],,,,E3,B3,,,5h[8:1],,,,A1,D2,,,6h[8:1],,,,E4,A3,,,{16}5b-1[8:1],,,,5x/8x,,,,2,4,3,7,5,6,1,,,,7-5[8:1],,2-4[8:1],,7-1[8:1],,2-6[8:1],,7-3[8:1],,2-8[8:1],,7,,2b,,,,5b-1[8:1]/6b-2[8:1],,,,,,,,{12}3x,3,4,6x,6,5,2x,2,4,7x,7,5,1x-5b[8:1],1,4,{16}1b,,,,86,,6,,86,,6,,24,,2,,24,,2,,6x,5,7,4,{32}3x,2,1,8,7,6,5,4,{16}3b,,,2b/6b,,,1bh[4:1]/5bh[4:1],,,,26,37,4bs8s4b[4:10]/8<8[2:5],,,,,,,,
