&title=焚音打
&artist=MyGO!!!!!
&first=0
&des=differ
&lv_5=14
&inote_5=(190)
{1},,
{16}3h[4:1]/5,,,,5,,6h[4:1],,,,5,,4h[4:2],,,,,,,,5,,,,5,,4,,6,,,,
{8}5h[4:1]/7h[4:1],,,6h[4:1]/4h[4:1],,,3h[1:1]/5h[2:1],,,,,,4,,6,,
{16}6h[4:1]/4,,,,4,,3h[4:1],,,,4,,5h[4:2],,,,,,,,4,,,,4,,5,,3,,,,
{8}2h[4:1]/5h[4:1],,,3h[4:1]/6h[4:1],,,4/7h[4:1],,5,,16,,2,8,3,4,
2bqq5[1:1],,2,6,,,6,,,,7,,7,5,6,2,7bpp4[1:1],,7,4,,,3,,2,2,1,1,6,
{16}1,2,3,4,5,6,
{8}8b,,8,3/7h[4:1],,4,3h[4:1]/5,,4b,,4,2h[4:1]/5,,8,3/7h[4:1],,
5h[4:1],,6,6,4,4,35,35,2h[8:1],
{16}4,3,5h[8:1],,2,5,2,5,1,6,1,6,8z4[1:1]b,,,,,,,,,,,,,,,,,,
7x,,,,7x,,,,6x,5,6,5,7,4,7,4,
{8}8,7,1,2>5[8:1],,2,1,8,7,4,6,1-5[8:1]/7-4[8:1],,17,,3,
8,7,1,3>8[8:1],,3,6,5,1,7,3,4-2[8:1]/8<5[8:1],,48,,1,26,3,5,2h[8:1],
{16}4,3,4,3,5,,4,,
{8}46,7,5,8h[8:1],
{16}4,7,4,7,2,,5,,
{8}34,2,34,5,34,2,35,6,35,2,46,7,46,3,
{16}6,5,6,5,
{8}7-4[8:1],7,3,1-5[8:1],,1,8,,3-8[8:1],3,7,6-2[8:1],,6,4,,
3-8[8:1],3,7,5-1[8:1],,5,4,,7-4[8:1],7,3,3,
{16}2,5,2,5,3,6,3,6,
1,,1,,7,,7,,2,3,4,5,1,8,7,6,4,,4,,7,,7,,3,2,1,8,6,5,4,3,
1,,1,,25,,5,,36,,3,,47,,7,,5,4,3,2,8,7,6,5,
{24}1,,,1bx,2x,3x,
{4}4x,6p4[1:2],,,,,,,,
{16},,3,,,3,,,4,,6,,,6,,,5,,3,,,3,,,4,,6,,,6,,,5,,
3,,,2,,,4,,6,,,7,,,5,,2,,,1,,,4,,7,,,8,,,5,,
2,,,2,,,1,,7,,,7,,,8,,2,,,2,,,1,,7,8x,1x,2x,3x,4x,
{8}5x-7[8:1],6,1-5[8:1],2,8-4[8:1],8,3-8[8:1],3,
6b<1[8:1],,6,2,,2,1-5[8:1],8,7b-4[8:1],,7,3,,7,8,1,2-5[8:1],6-4[8:1],2,6,
{16}3,2,1,8,7,6,5,,
{8}4-2[8:1],3,7-4[8:1],8,,1-5[8:1],1,8-3[8:1],,8,2-7[8:1]*-5[8:1],,2b,,,56,
{16}5,4,3,2,1,8,7>2[8:1],,,,6,,,,6,,3,5,3,5,2p6[8:1],,4,,2b,,,,,,,,
{4}7/8>3qq4[1:1],,,,E6/A5,,E7/A7,,
{8}8h[8:3],,,5h[8:3],,,7h[8:3],,,1h[8:3],,,
{16}4,,2,,E7f,,,,
{8}2-5[8:1],2,1-6[8:1],1,3-8[8:1],3,4-7[8:1],4,
2>5[8:1],2,8<5[8:1],8,1>4[8:1],1,7<4[8:1],7,1,2,3,47,6,5,43,1,58,7,26,3,4h[4:1],
{16}5x,6x,7x,8x,1x,2x,
{8}3x-7[8:1],5,3,6-4[8:1],,1-6[8:1]/6,,1-4-2[4:1],7,1,5,
{16}5x,6x,7x,8x,1x,2x,3x,4x,5x,6x,
{8}7x-3[8:1],1,7,2-8[8:1],,5-7[8:1]/2,,2-4[8:1]/5,,2/8-4[8:1],,8/1-5[8:1],,1,7,7,
4,3,2-5[8:1],7,2,6,6,3<5[8:1]/7<5[8:1],,37,,1,2>5[8:1]/8<5[8:1],,28,,
6b-1[8:1],,6,3b<5[8:1],,3,8bpp4[8:3],,28,,,,2q6[8:1],
{16}5,6,7,8,1,,1h[4:1],,,,4,,4,,3/6<1[8:1],,,,6,,
2>5[8:1],,,,2,,1,,8,,7,,3,,6,,6,,2>5[8:1]/5,,,,2,,1p5[8:1],,,,1,,2,,3>5[8:3],,,,,,5p1[4:1],,,,1p4[4:1],,,,8,,,,
7<5[8:1],,,,1-5[8:1]/7,,,,1/8-4[8:1],,,,28,,,,
3,,3>8[8:1],,6,,7b,,,,,,7,,1,,
{8}8-4[8:1],8,2-5[8:1],2,6-1[8:1],6,4,3,
{24}2h[8:1],,,E8,E7,E6,3h[8:1],,,D8,D7,D6,4h[8:1],,,
{16}5x,6x,7x,8x,2,3,
{8}4b,8,2,6b,1,7,3b,5,1,
{16}7,6,3-8[8:1]/5,,5x,,3/7-5[8:1],,,,17,,,,2b,,2,,8,,7b,,7,,5,,4b,,6,,
2,,8,7,6-8[8:1]/4,,3x-5[8:1],,6-4[8:1],,3,,6,,,,
{8}1,2,3,47,6-1[8:1],4,6,2<7[8:1],,2,4-1[8:1],4-7[8:1],4-8[8:1],,,,
5,6,7,83,2-5[8:1],8,2,6<1[8:1],,6,2,3,
{16}8,7,6,5,3,2,1,8,5h[8:1],,2>4[8:1],,1,,7<5[8:1],,8,,1>3[8:1],,8,,4,,
5,,6-1[8:1],,7,,3-8[8:1],,4,,5-8[8:1],,6,,1,,2,,
3-7[8:1],,3,,4-8[8:1],,4,,5-1[8:1],,5,,7b,,
,,8-4[8:1],,7,,1>4[8:1],,1<6[8:1],,1x,,1x,,,,
{8}5,46,7,35,2,47,
{16}6,5,7-4[8:1],,,,4<1[4:1],,,,1,,2,,3,,4h[4:1],,,,
7,,6,,47,,6,,7,3,8,3,1,2,1,2,
{8}8,7,6,52,3,3,
{16}8,7,6,5,
{8}1,1,2,2,36,36,47,47,8,8,
{16}5,,5,,4,8,4,8,4,8,4,8,
(95.1)
3bqq4[4:1]/7,,,,35,,,,6pp4[4:1],,,,56,,,,1pp8[4:1],,,8,,,8,,
7,7,1,6,2,2,4,,
6bpp5[4:1]/3,,,,64,,,,3qq5[4:1],,,,43,,,,8qq1[4:1],,,1,,,3,,
3pp8[4:1],,2,4,3,,,,
7bqq8[4:1],,,,71,,,,2pp8[4:1],,,,12,,,,5pp4[4:1],,,5,,,4,,
3,3,5,2,6,6,1,,
2bpp1[4:1]/7,,,,28,,,,7qq1[4:1],,,,87,,,,4qq5[4:1],,,5,,,7,,
{32}8x,1x,2x,3x,1x,2x,3x,4x,1x,2x,3x,4x,2x,3x,4x,5x,
{16}6bpp5[4:1],1,2,3,6,3,2,2,3qq5[4:1],4,5,6,3,6,7,7,8qq1[4:1],1,2,3,8,2,3,3,
4,4,8,3,7,7,5,4,
3bqq4[4:1],8,7,6,3,6,7,7,6pp4[4:1],5,4,3,6,3,2,2,1pp8[4:1],8,7,6,1,7,6,6,
6qq1[4:1],3,7,5,6,,,,
2bpp1[4:1],5,6,7,2,7,6,6,7qq1[4:1],8,1,2,7,2,3,3,4qq5[4:1],5,6,7,4,6,7,7,
8,8,4,7,3,3,1,8,
7bqq8[4:1],4,3,2,7,2,3,3,2pp8[4:1],1,8,7,2,7,6,6,
5pp2[16:3],,,2<4[16:3]/5,,,4,,3bqq5[4:1],,,,13,,,,8b-5[2:8]b,
E
