&title=Redemption
&artist=XinG、10lulu
&first=0
&lv_5=14+
&des_5=AM
&inote_5=
(87.5){4},,,,{2}8V64[8:1],
1V35[8:1],
5V71[8:1],4V28[8:1],
7p6[8:1],2q3[8:1],
{1}5pp8[8:5]/4qq1[8:5],
{32}1,8,2,7,1-5[16:1],8,3-7[16:1],6,1,8,4,5,{8},{32}4,5,3,6,4-8[16:1],5,2,7,4,5,1,8,{16}4,6,
{32}3,4,{16}3,{32}6,5,{16}6,{32}3b,4,{16}2,{32}6V48[16:5],5,{16}7,{32}3,4,{16}2,8,1,2b,3,4,5,
{32}6,5,{16}6,{32}3,4,{16}3,{32}6b,5,{16}7,{32}3V51[16:5],4,{16}2,{32}6,5,{16}7,1,8,7b,6,5,4,
{32}4,4,3,5,4,4,3,5,4b,4,3,5,4,4,3,5,3,3,2,4,3,3,2,4,3b,3,2,4,3,3,2,4,
{8}3<6[16:1],{32}3,4,{16}5,{32}2b,1,{16}8,{32}3,3,4,4,5,5,6,6,2,2,1,1,8b,8,7,7,8,1,2,3,
{8}4b,4,8V62[8:3],8,8b/3b,3,3V16[8:3],3,
3b/7b,7,7V52[8:3],7,7b/4b,4,4qq1[8:3],4,
8b/4b,8,8qq5[8:3],8,8b/2b,2,2V84[8:3],2,
2b/5b,5,5V73[8:3],5,{16}5/3,3,2,2,1w5[8:7],1,8,7,
{1}1b,
8bw4[8:5],
{2}4b-2[8:1]/5b-7[8:1],{16}1-5[8:1],2,3,4,5,6,7,8,
{32}1,8,2,8,1,8,2,8,1b,8,2,8,1,8,2,8,5,6,4,6,5,6,4,6,5b,6,4,6,5,6,4,6,
2,3,2,4,2,3,2,4,2b,3,2,4,2,3,2,4,1V75[8:1],1,1,1,8,8,8,8,{16}5b,4,3,2,
{32}8,6,8,4,8,6,8,4,8b,6,8,4,8,6,8,4,3,1,3,5,3,1,3,5,3b,1,3,5,3,1,3,5,
4,6,4,2,4,6,4,2,4b,6,4,2,4,6,4,2,5V73[8:1],5,5,5,4,4,4,4,{16}3b,2,1,8,
{32}7,6,6,6,7,6,6,6,5b,6,6,6,5,6,6,6,7,6,8,6,1,6,2,6,3b,6,4,6,3,6,2,6,
1,2,2,2,1,2,2,2,3b,2,2,2,3,2,2,2,3,2,3,1,3,8,3,7,3b,6,3,5,3,4,3,2,
3,1,3,8,4,4,4,4,4b,4,4,4,4,4,4,4,5,5,5,5,5,5,5,5,5b,5,5,5,5,5,5,5,
{16}4,4,{24}7,5,6,1b,3,2,8,6,7,{32}2,2,3,3,1,1,4,4,8b,8,5,5,7,7,6,6,
{4}1qq4[8:29],1h[4:1],2,3,
4,8,7,6,
{2}5,3h[2:1],
,1h[2:1],
6pp3[8:13],3h[2:1],
,4h[2:1],
{16}6,6,7/5,7/5,8/4,8/4,3/7,3/7,{32}4,5,5,5,3-8[16:1],5,5,5,2,5,5,5,{8}3b,
{32}1,7,1,7,1,8,1,8,1b,1,1,1,1,2,1,2,1,3,1,3,1,4,1,4,{16}1b/4b,2b/5b,3b/6b,4b/7b,
{32}2,1,3,8,2,1,3,8,2b,1,4,7,2,1,4,7,5,6,4,7,5,6,4,7,5b,6,3,8,5,6,3,8,
3,2,3,4,3,2,3,4,3b,1,3,5,3,1,3,5,3,8,3,6,3,8,3,6,4b,2,4,2,3,1,3,1,
2,8,2,8,1,8,1,8,8b,8,8,8,7,8,7,8,6,8,6,8,5,8,5,8,{16}8b-5[16:1]/5b-2[16:1],4b/7b,3b/6b,2b/5b,
{8}8b/5b,{32}1,3,1,3,2b,3,2,3,4,3,4,3,5,3,5,3,6,4,6,4,{16}6b-2[16:1]/5b-1[16:1],7b/4b,8b/3b,1b/2b,
{8}6b/5b,{32}7v4[16:1],1,7,1,8b-3[16:1],2,8,2,{16}4V68[16:1],2,{8}8,4,{24}1bV37[8:1],4,3,8,5,6,
{8}1,{64}4,5,6,7,8,1,2,3,{8}4b,{32}6,5,7,7,{24}3,1,2,8,{12},{24}1b,1,1,2/4,{48},{16}1/3,
{32}2,2,3,3,4,4,5,5,{16}6b/1b,7b/2b,8b/3b,1b/4b,{32}3,8,3,8,2,7,2,7,{16}8z4[16:1]/1z5[16:1],7/6,1/8,2/3,
{1}8bqq5[8:5]/1bpp4[8:5],
{16}2,2,3/1,3/1,4/8,4/8,5/7,5/7,{32}2b,5,5,5,2b,5,5,5,3b,8,8,8,3b,8,8,8,
{1}4bqq7[8:13],
,{32}1/6,
2,3/8,7,1/6,2,3/8,7,6/1,2,3/8,7,6/1,2,3/8,7,6/2,3,4/7,6,5/2,3,4/7,6,5/2,3,4/7,6,5/2,3,4/7,6,
{24}5/2,2,2,7,7,7,3b,3b,3b,6b,6b,6b,{4}1v3[8:1]*-5[8:1],1v6[8:1]*v4[8:1],
{1}1bv7[4:3]*-5[4:3],
E
