&title=New World
&artist=Pure100%
&first=0.99
&des=Hanario
&lv_5=13+
&inote_5=(160)
{8}2h[4:3]/6b>1[4:1],,,,,,8,7h[4:2]/3bp5[4:1],
{8},,,,,4h[4:1]/6,,5,
{8}3,3,3,3,73,3,3,3,
{8}64,6,6,6,46,{16}4,5,63,,,,
{8}2h[4:3]/6bq3[4:1],,,,,,4,5-7[8:1]/1b,
{8},3-5[8:1],,1v7[8:1],,3,,4,
{8}4h[4:1],,3,3h[4:1],,1,,7,
{8}7h[4:1],,5,5h[8:1],6,{16},4,5,,,,
{8}7h[4:3]/3b<8[4:1],,,,,,1,2h[4:2]/6bq4[4:1],
{8},,,,,5h[4:1]/3,,4,
{8}6,6,6,6,26,6,6,6,
{8}35,3,3,3,53,{16}5,4,36,,,,
{16}2,4,2,4,2,4,2,4,3,5,3,5,3,5,3,5,
{16}4,6,4,6,4,6,4,6,5,7,5,7,5,7,5,7,
{12}5b,6,4,5,6,4,{16}7,5,6,3,5-1[8:1],2,6,4,
{8}5b,,2v4[8:1]/6v8[8:1],,,,,,
{8}2/4h[8:1],3,2/5h[8:1],4,6h[8:1]/2,{16}5,6,,3,4,,
{8}25,46,25,46,{16}2h[8:1],,4^1[8:1],2,,5,5,,
{8}7,5,7/4h[8:1],5,3h[8:1]/7,{16}4,3,,6,5,,
{8}74,53,74,53,{16}4b-2[16:1],6b-4[16:1],,4b,,6b,,,
{8}1-4[8:1]/4-7[8:1],,1b/4b,,3/6,{16}4,5,,3,4,,
{8}53,24,53,24,{16}6h[8:1],,4^7[8:1],6,,3,3,,
{8}1bq5[8:1],,17,8bp4[8:1],,2s6[4:1]/8,1b-5[8:1],,
{8},,{16}4,4,4qq4[8:3],4,4,,,,,,,,
{16}7b,,,,3,5,4,6,5h[1024:1],,7,6h[1024:1],,5h[1024:1]/8h[1024:1],,,
{8}26,57,26,57,{16}3h[8:1],,5,4h[8:1],,6,5,,
{8}2/8h[8:1],3,2/5h[8:1],3,8h[8:1]/2,{16}3,5h[8:1],,1,8,,
{8}37,24,37,24,{16}5b-7[16:1],2b-4[16:1],,5b,,2b,,,
{8}7/4h[8:1],6,7/1h[8:1],6,4h[8:1]/7,{16}6,1h[8:1],,8,2,,
{8}6/2-5[8:1],5-1[8:1]/7,62,7,{16}6h[16:3],,,1,,2,2,,
{16}8,7,6,5,48,7,6,5,4-8[8:1]/8,7,6,5,,,,,
{24}16,2,3,4,,,{24}27,6,5,4,,,{12}3,3,3,{8}6,5,
{16}7b/4b,,,,3,4,3,,3h[4:1],,,,4,3,4,,
{16}4,3,4,,4v6[8:1]/3,,,,2-4[8:1],,,,8,,,,
{16}7b/2b,,,,6,5,6,,6h[4:1],,,,5,6,5,,
{16}5,6,5,,5v3[8:1]/6,,,,7-5[8:1],,,,1,,,,
{16}3b/6b,,,,2,2,1,,2h[4:1],,,,1,1,2h[8:1],,
{16}8,8,1h[8:1],,7v8[8:1],,,,4v5[8:1],,,,6,,,,
{16}6b/3b,,,,7,7,8,,7h[4:1],,,,8,8,7h[8:1],,
{16}1,1,8h[8:1],,2v1[8:1],,,,5v4[8:1],,,,3,,,,
{8}3h[16:1],3h[16:1],5h[16:1],5h[16:1],3h[16:1]/4-6[8:1],3h[16:1],,,
{8}7h[16:1],7h[16:1],2h[16:1],2h[16:1],7h[16:1]/1v8[8:1],7h[16:1],,,
{16}2,6,3,7,2,6,3,7,2,6,1,5,2,6,1,5,
{8}1h[4:2],6,4,7,8-4[8:1],{16},3,8,,2,,
{8}1bp8[4:5],,8h[8:1],,,,7h[8:1],,
{8},,6h[8:1],,,5,4-1[8:1]*-7[8:1],,
{16}4b,,,,2,8,5,,8,2,5,2,8v1[8:1],5,8,,
{16},,,,7,1,4,,1,7,4,7,1v8[8:1],4,1,,
{16},,,,2,6,4,,6,2,4,2,6v4[8:1]*v8[8:1],4,6,,
{16},,,,7,3,5,,3,7,5,7,3,5,3,,
{16}3h[8:1]/5h[8:1],,,4h[8:1]/6h[8:1],,,2h[8:1]/5h[8:1],,,,2,,3,,3,4,
{16}25,,6,5,47,,21,38,47,,,,8z4[8:1]/1s5[8:1],,,,
{16},,,,7,5,7,3,1,3,7,5,7v5[8:1],3,1,,
{16},,,,2,4,2,6,8,6,2,4,2v4[8:1],6,8,,
{16},,,,7,1,5,3,1,5,7V15[4:1],1,5,3,,,
{16},,,,2,8,4,6,8,4,2-6[8:1],8,4,6,,,
{8}7,,{12}15,2,6,3-5[8:1]/7,4,8,{8},,
{8}3h[8:1],4,6h[8:1],5,4-1[8:1],3,2b,,
{16}7h[16:3]/8,,,1,6,,2,,3/4h[16:3],,,2,5,,6,,
{16}3,5,2,6,4,7,3,8,2-6[8:1],6,4,8,2b,,,,
{8}7h[8:3],,,5h[8:3],,,4h[8:4],,
{8},,3h[4:10],,,,6,5,
{8}4,,2,,4,,2,,
{8}4,,2,,4,,2,,
{8}6h[8:3],,,5h[8:3],,,4h[8:3],,
{8},3h[8:3],,,6h[4:9],,4,5,
{8}7,7,,5,5h[4:1],,,7,
{8}7,7,,5,5h[4:1],,,,
{8}6/4p2[2:1],,6,,6,,6,,
{8}1/5q7[2:1],,1,,1,,1,1,
{8}1^4[8:1],,5^8[8:1],,2^5[8:1],,6^1[8:1],,
{8}3^6[8:1],,7^2[8:1],,4^7[8:1],,2,,
{8}73,7,26,2,83,8,47,{16}4,5,
{8}36,3,25,5,{16}1,8,1,7,2,8,2,7,
{16}3,5,2,5,1,5,8,5,7,5,6,5,5^2[8:1],5,5^8[8:1],5,
{8},,,3,3,,4h[8:1]/5h[8:1],,
{8}3,2,1>4[16:2]/6,,7V15[16:3]/1,,3,4v7[8:1],
{8},42,1h[16:3],{16},6,1-3[8:1],,3-8[8:1]/7,,51,,7,,
{8},6,1/5^8[8:1],{16},2,5^2[8:1],,,,8/5,,1v4[8:1],,
{16},,16,,5h[16:3],,,2,5-7[8:1],,3/7-4[8:1],,51,,3,,
{8},2,7/3V51[16:3],,3/7<3[8:1],,7,1V75[16:3],
{8},12,2h[16:3],{16},8,2-4[8:1],,4-8[8:1]/6,,28,,1,,
{8},6h[8:1],5h[8:1],{16}4-6[8:1],3,{8}4,3,,38,
{8}7h[8:1]/4h[8:1],,{16}5,5,5,5,5bp4[4:1],,4b/6b,,,,,,
{16}2v5[8:1],,34,,2,,6,6,,3,3,,7-3[8:1],8,6,5,
{8}7,4,56,{16}3,3-1[8:1],,1-5[8:1],1,,8,,7,,
{16}6^3[8:1],,27,,6,,2,2,,7,7,,1,8,2,1,
{16}3,4,2,6,5-8[8:1],7,3-8[8:1],4,,,,,7,,1,1,
{12}1,,3,2h[6:1]/6,,4,1,5,2,36,7,4,
{12}8^5[8:1],,3-5[8:1],8-4[8:1],,3,8,,1,{16}7,2,5,3,
{8}7-4[8:1],6,2-7[8:1],1,5-2[8:1],6,1,8,
{16}3,4,2,5,1,7,2,8,4,6,3,8,{24}3,4,5,6pp1[8:15],7,8,
{24}6b/1qq6[8:14],,,,,,,,
