&title=Luminescent
&artist=Daison
&first=0.15
&lv_5=13+
&des_5=简心单视
&inote_5=
(141){4},,,,,,,,{8}4,
6,5,7h[2:1],,5,4,3h[16:9],
,,,4,5,6,7,6,
5,2,4,3h[2:1],,5,6,7h[4:1],
,5h[4:1],,1h[4:1],{4}3h[4:1],{8}8,8,
4,3,2,3h[2:1],,5,7,6h[16:9],
,,,5,4,3,2,3,
4,4,5,5h[2:1],,3,2,1h[4:1],
,7h[4:1],,3h[4:1],,{16}6,5,{8}4,3,
6,6h[4:1],{4}B3,{8}2,2h[4:1],{4}B7,
5h[4:1],{8}B1,{16}6,4,{8}6,4h[4:1],B8,B6,
3,3h[4:1],{4}B6,{8}7,7h[4:1],{4}B2,
{8}1,1h[4:1],{4}B8,{24}3,5,3,5h[4:1],{12},{8}B3,B1,
{4}4/6<2[4:1],6x/2xp5[16:3],{16}3,3,{8},2x/4x,5/3,
{4}4/2>6[4:1],{16}2x/6p1[16:3],{8},{16}7,,7,{8},6x/8x,1,
2/4,2/5,2/6,{16}7/2,3,{8}4/7,7/5,{16}8x,4,7,3,
{24}8,1,2,3,4,5,6,7,8,1,2,3,{4}8x/4xh[4:1],Cf,
{8}2x/5x,4,3,5x/2h[4:1],,8<3[8:3],7/1,6xh[2:1],
,,,{16}2>4[8:1],7,{8}2,6,{4}5h[8:1],
{8}6x/3x,5,4,6x/3xh[4:1],,5<3[2:1],4,4xh[2:1],
{2},{24}4,5,4,5,{12},{4}6h[8:1]/3h[8:1],
{8}7x/4x,5,6,4x/7h[4:1],,1>6[8:3],2/8,3xh[2:1],
,,,{16}7<4[4:1],2,{8}7,3,{4}3h[8:1],
{8}6x/3x,4,5,3/6xh[4:1],,4>7[8:5],5,6h[8:1],
,5h[8:1],,4h[8:1],,{16}6,5,{8}4,6/3,
2-5[8:1],1,8x/2x,7,6-1[8:1],5,6x/4q7[8:5],3,
{4}2-5[8:1],2x,{8}8-3[8:1]*-5[8:1],1,{4}8x,
{8}7-4[8:1],8,7x/1x,2,3-8[8:1],4<7[8:1],3x/5x,4>1[8:1],
,4x/8x<5[8:1],,1,{24}1q5[8:1],2,3,4,{3},{8}6-1[8:1],
5,6x/4x,3,2-5[8:1],1,2x/8pp4[8:3],7,
6,{16}5,5,5,5,{8}5xh[8:1],3<6[8:1]*>8[8:1],2,{4}3x,
{8}7-2[8:1],8,7x/5x,4,3-6[8:1],4,3x/1x,8<2[4:1],
,8xw4[8:1],,,,B7/B1/B5/B3/Cfh[8:3],,,,,,,,,,,,,,,,,,{16}B6,
B5,
{8}E5,{4},{8}B2,,,,B8,
,,,,,,,{16}B2,B1,
{8}E1,{4},{8}B6,,,,B4,
{1},{2}B7/B6,
{8}B1/B2,{4},{8}B4/E5,
{16},,,,,,,,,,,,,E8,E7,E6,
{4}E5,{16}3,4,3,4,3x,{8},{16}5,{8},4,
{16}6,{8},{16}6,5,6,5,6,5x,{8},{16}4,{8},{16}E7,E8,
{4}E1,{16}2,1,2,1,2x,{8},{16}8,{8},1,
{16}7,{8},{16}7,8,7,8,7,8x,{8},{16}1,{8},{16}B2,B3,
{4}B4,{16}6,5,6,5,6x,{8},{16}4,{8},5,
{16}3,{8},{16}3,4,3,4,3,4x,{8},{16}5,{8},6,
{2}6h[2:1],{8}4h[1:1],{4},{8}8h[8:5],
,,,,,{16}B6,C,{8}B2,B8/B4,
2/6h[8:1],2,3/6h[8:1],3,5/4h[8:1],6,5/4h[8:1],6,
3/7h[8:1],3,2/7h[8:1],2,8>3[8:1]/1<6[8:1],5/4,{4}8x/1x,
{8}7/3h[8:1],7,6/3h[8:1],6,4/5h[8:1],3,4/5h[8:1],3,
6/2h[8:1],7,{4}8p1[8:1]/1q8[8:1],8x/1x,{12}5/4,5/4,5/4,
{8}3/6xh[2:1],2,1,8,7,6/5,5/4,{16}4,5,
{8}6/3h[8:3],7,8,1,{16}8,4,6,2,7,1,5,3,
{12}4,{24}4,2,,2,{12}7,{24}7,5,,5,{12}8,{24}8,1,,1,{16}E7,E3,E6,E4,
{2}8h[2:1],{8}4,8,{12}1b,{24}E7,B5,,E3,
{2}7h[4:1]/B4f,{4}3h[4:1]/5<7[16:1],{8}5xp8[4:1],{16}4x,4x,
{4}5/8>3[8:1],7p4[4:1],{8}7x/3x,2,1>7[4:1],8,
{4}1h[16:3],8pp3[8:3],{8}8x/7x,6h[4:1],{4},5<8[8:1],
3q6[8:3],1b>4[8:1],1,
{2}7h[4:1]/8qq6[8:1],3h[4:1]/4qq2[8:1],
{4}1h[8:3]/8<5[16:3],8,{8}2x/4x,3,7x/5x,6,
4h[4:1],5-8b[8:1],{4}5-2b[8:1],{8},1h[4:1],,{16}3,3,
{2}2h[4:1]/8qq4[8:3],{8}1xw5[8:1],2,{4},{8}7<4[16:3],
8,7x/1x,2,1q5[8:1],5>8[8:3],6x/1x,7<4[8:1],
8,{4},{16}6,5,{8}7qq4[8:3],4,3/7x,2,
1>4[8:1],8,6x/1x,7,8-6[8:1],1,8x/2>5[8:1],1,
2<7[8:1],7>4[4:1],2,6,{24}5xp1[8:1],6,7,8,{3},{8}8-3[8:1],
7,6x/8x,5,4-7[8:1],3,2x/4x,1h[4:1],
8,{16}7,7,8,8,7,6,{8}5-8[8:1],4,5x/3x,2,
1<6[8:1],2,1x/3x,4,5>2[8:1],6,7x/5x,8h[4:1],
,2h[2:1],,6h[4:1],{4},{16}B8,C,{8}B4,
{16}6xh[8:1]/5bh[8:1],{8},{16}4bh[8:1]/3xh[8:1],{8},6xh[8:1]/8bh[8:1],{16},4bh[8:1]/2xh[8:1],{8},{16}7xh[8:1]/6bh[8:1],{8},{16}8bh[8:1]/2x>1[16:7],
{8},Cf,{2},{8}8>3[8:1],7,
6x,5,4-8[8:1],3,2x/4x,1,7-4[8:1],8,
7x/1x,2h[8:3],,4h[32:11],{24},8h[96:17],{6},{24}5x/1-5[8:1],6/2,7/3,8/4,{3},{8}4-8-6[4:1],
3,2x/4x,1,2>5[8:1],5-1-3[4:1],
2x/6x,7h[8:1],,{16}8,8,8,8,3,1,{8}4-1[8:1]*-7[8:1],5,
{4}4x,{8}8qq4[8:3],8,4x,3,2qq6[8:3],2,
2x,B5f/E5,,8h[4:1],,1h[8:3],{4}8w4[8:1],
,{8}7b,6,5,4,C,3,
4,5h[2:1],{2},{8}B4,6,
5,4,2,5,4,6,C,2,
1,8h[2:1],,5,{4},C,
4h[4:1],{8}2,3,4,5,C,6,
5,4h[2:1],{2},{8}C,6,
5,4,3,8,1,6,C,7,
8,1h[2:1],,2h[4:1],,,,{16}6,3,
{8}5,4<5-8[8:9],
E
