&title=Avid (TV. size)
&artist=SawanoHiroyuki[nZk]:mizuki
&first=0.013
&des=nameless
&lv_5=12
&des_5=nameless
&inote_5=
(156){8}E3,E4,E5,E6,,E8/B7/B8,,,E7,
E6,E5,E4,,E2/B2/B1,,,E2,
E4,E3,E5,,E7/B6/B7,,,E8,
E6,E7,E5,,E3/B3/B2,,,3,
5,4,6,,7h[8:1],,,6,
4,5,3,,2h[8:1],,,1>5[2:1],
2,6,7,,C,,,8<4[2:1],
7,3,2,,C,,,5/3v8[2:1],
4,,6,,7,,1V35[8:5],
,7,,8,,1,,2xqq6[8:7],
,,,,,,B4,B5h[8:7],
,,,,,,,,4/6v1[2:1],
5,,3,,2,,8V64[8:5],
,2,,1,,8,,7xpp3[8:7],
,,,,,,B5,B4h[8:7],
{16},,,,,,,,,,,,2bx,,,2bxh[1:1],
,,,,,,,,,,,,,6x,,7xh[16:15],
,,,,,,,,,,,,,,{8}B2h[16:13]/E3h[16:13],
{16},,,,,,,,,,,,,,,,,7<3[16:3],
,,{8}3V51[4:1],2,,2h[4:1],,Ch[8:7],
,,,,,,1x,1xw5[8:5],
{16},,,,,,,,,,,,,,,8xw4[16:9],
,,,,,,,,,,,,,,,,,1bh[16:9],
,,,,,8bh[16:3],,,,,,2b-5b[8:1]/7b-4b[8:1],,1b/8b,
,B6f/B5f/B4f/B3f/Cf,,,,,,4,,4/5<1[2:1],,,,3,,2,
,2,,,,B2,,,,3b,,,,4>7b[2:1],,5h[8:3],
,,,,,B5,,,,6b,,6h[8:1],,8x,,7-4[8:1],
,1/8,,3xh[8:1],,,,3,,2/1,,2h[8:5]/1>5[8:3],,,,1,
,,,,,,,,,B7/B6/B1/B8,,,,2-5[8:1],,5qq1[8:5],
,2,,,,B7,,,,8b,,,,8<4[4:1],,,,4>8[4:1],
,,,8V64[4:1],,,,4b-8b[4:1],,,,,,,,1x,
,1x-5[8:1],,,,2/1-3[8:1],,,,8/1s5[8:5],,,,8x,
,8bx,,,,6,,,,8,,,,8x>8[1:2],,C,
,,,,,,,,,,,,,4x<8[1:1],,C,
,,,,,,,,,,,,,,,B1,
,B2,,B7,,B6,,8V64[4:1],,,,4V28[4:1],,,,2xh[8:5],
,,,,,,,,,7,,,,1,,1,
,8/1pp4[4:3],,,,B7,,,,B5,,,,5,,5,
,5pp8[4:3],,,,B3,,,,,,B1,,,,,,C,
,,,,,E8,,4,,5,,4,,5,
,6/3h[4:1],,,,B7,,,,7-5v4-2[2:1],,,,3,,3,
,3h[4:1],,,,,,,,3/4,,,,3,,2,
,1-4-8-5[2:1],,,,,,,,,,,,8x,,1x-4-8-5[8:5],
,,,,,,,,,,,,,,,,,B7h[4:1],
,,,,,4,,4h[4:1],,,,5,,5,
,4/5<2[4:3],,,,,,,,,,,,3,,3,
,3>5[4:3],,,,,,,,,,,,4,,4h[8:3],
,,,,,,,,,4/5,,4/5,,4/5-8[8:1],,,,5b/4b,
,,,2-5[8:1]/1-5[8:1],,2/1,,,,,,8-4[8:1]/7-4[8:1],,8/7,
,,,,,6q2[8:1]/5p1[8:1],,5/6,,,,,,3p7[8:1]/4q8[8:1],,4/3,
,,,,,2v5[8:1],,3,,,,,,4v7[8:1],,5,
,,,,,6v1[8:1],,7,,,,,,8v3[8:1],,1,
,,,,,2-6[8:1],,3,,,,,,8-4[8:1],,1,
,,,,,6-2[8:1],,7,,,,,,4-8[8:1],,5,
,,,,,B2/B3,,B4/E4,,,,,,B6/B7,,B8/E8,
,,,,,8<7v5<6-8[8:5]/1v4>2v1[8:5],
E
